Сегодня идет свободное скачивание без начисления Download

Однажды в Сказке / Once Upon a Time / Сезон: 5 / Серии: 1-13 из 22 (Ральф Хемекер, Рон Андервуд) [2015, Фэнтези, мелодрама, приключения, WEB-DL 720p] Dub (Невафильм) + Original + Subs (Rus, Eng)

Ответить на тему
 
Автор
Сообщение

Omen ®

Стаж: 5 лет 9 месяцев

Сообщений: 184393

Торрент-статистика

Пост 25-Мар-2016 18:33

[Цитировать]

Однажды в Сказке / Once Upon a Time-Год выпуска: 2015 (5 сезон)
Страна: США
Жанр: Фэнтези, мелодрама, приключения
Продолжительность: ~ 00:45:00
Перевод: Профессиональный (дублированный) (Невафильм)
Субтитры: Русские, английские
Режиссёр: Ralph Hemecker / Ральф Хемекер, Ron Underwood / Рон Андервуд и др.
В ролях: Ginnifer Goodwin (Белоснежка/Мэри Маргарет Бланшар), Jennifer Morrison (Эмма Свон), Lana Parrilla (Злая Королева/Реджина Миллс), Joshua Dallas (Прекрасный Принц/ Дэвид Нолан), Jared Gilmore (Генри Миллс), Robert Carlyle (Румпельштильцхен/Мистер Голд), Colin O'Donoghue (Капитан Крюк/Киллиан Джонс), Emilie de Ravin (Белль), Lee Arenberg (Ворчун/Лерой), Liam Garrigan (Король Артур), Rebecca Mader (Зелина), Sean Maguire (Робин Гуд), Joana Metrass (Гвиневра), Elliot Knight (Мерлин), Amy Manson (Мерида), Olivia Steele-Falconer (Вайолет), Sinqua Walls (Ланселот) и др.
Описание: Сюжет сериала разворачивается в двух мирах — современном и сказочном. В пятом сезоне в Сторибруке Белоснежка, Прекрасный Принц, Злая Королева, Крюк, Робин Гуд и Генри не желают смириться с тем, что отныне Эмма – Темная. Чтобы спасти ее, они отправляются на поиски Мерлина в легендарный Камелот. Это путешествие преподнесет массу сюрпризов, среди которых знакомство с храброй и упрямой шотландской принцессой по имени Мерида. Удастся ли героям вернуть Эмму к свету? И кому под силу защитить Сторибрук от очередной надвигающейся страшной опасности, если в нем не осталось больше Спасителя?..
сэмпл: http://multi-up.com/1078329
Релиз:: CasStudio
Качество: WEB-DL 720p
Формат: MKV
Видео: AVC (H.264) | 1280x720p | 25.000 fps | ~3937 kbps
Аудио #1: AC3 | 48KHz | 2.0 (Front: L R) | ~192 kbps [DUB]
Аудио #2: AC3 | 48KHz | 5.1 (Front: L C R Side: L R) + LFE | ~384 kbps [Original]
Субтитры: Russian (Forced, Full) - только в 1-9 Сериях, English
Цитата:
Цитата:
Релиз доступен благодаря юзерам сайта CasStudio: Anonymouss, Ingvar, TaLi4, Allo-4ka, AlexJ, sanfisko.

Скриншоты

Media Info

Код:
Общее
Уникальный идентификатор                 : 215936118153590955640110246362144479894 (0xA273C89A2F5253768641BBCCA4469A96)
Полное имя                               : Once.Upon.a.Time.S05E01.720p.WEB-DL.DD2.0-5.1.H.264-CasStudio.mkv
Формат                                   : Matroska
Версия формата                           : Version 4 / Version 2
Размер файла                             : 1,38 Гбайт
Продолжительность                        : 41 м.
Общий поток                              : 4774 Кбит/сек
Название фильма                          : Once.Upon.a.Time.S05E01.The Dark Swan.720p.WEB-DL.DD2.0-5.1.H.264-CasStudio
Дата кодирования                         : UTC 2015-12-30 16:41:33
Программа кодирования                    : mkvmerge v8.6.1 ('Flying') 64bit
Библиотека кодирования                   : libebml v1.3.3 + libmatroska v1.4.4
Attachements                             : Cover
Видео
Идентификатор                            : 1
Формат                                   : AVC
Формат/Информация                        : Advanced Video Codec
Профиль формата                          : High@L3.1
Параметр CABAC формата                   : Нет
Параметр ReFrames формата                : 2 кадра
Идентификатор кодека                     : V_MPEG4/ISO/AVC
Продолжительность                        : 41 м.
Битрейт                                  : 4194 Кбит/сек
Ширина                                   : 1280 пикселей
Высота                                   : 720 пикселей
Соотношение сторон                       : 16:9
Режим частоты кадров                     : Постоянный
Частота кадров                           : 25,000 кадров/сек
Цветовое пространство                    : YUV
Субдискретизация насыщенности            : 4:2:0
Битовая глубина                          : 8 бит
Тип развёртки                            : Прогрессивная
Бит/(Пиксели*Кадры)                      : 0.182
Размер потока                            : 1,21 Гбайт (88%)
Заголовок                                : WEB-DL 720p (25fps)
Язык                                     : English
Default                                  : Да
Forced                                   : Нет
Цветовой диапазон                        : Limited
Основные цвета                           : BT.709
Характеристики трансфера                 : BT.709
Коэффициенты матрицы                     : BT.709
Аудио #1
Идентификатор                            : 2
Формат                                   : AC-3
Формат/Информация                        : Audio Coding 3
Расширение режима                        : CM (complete main)
Параметр Endianness формата              : Big
Идентификатор кодека                     : A_AC3
Продолжительность                        : 41 м.
Вид битрейта                             : Постоянный
Битрейт                                  : 192 Кбит/сек
Каналы                                   : 2 канала
Расположение каналов                     : Front: L R
Частота                                  : 48,0 КГц
Частота кадров                           : 31,250 кадров/сек (1536 spf)
Метод сжатия                             : С потерями
Размер потока                            : 56,7 Мбайт (4%)
Заголовок                                : DD 2.0 @ 192 Kbps - DUB
Язык                                     : Russian
Default                                  : Да
Forced                                   : Нет
Аудио #2
Идентификатор                            : 3
Формат                                   : AC-3
Формат/Информация                        : Audio Coding 3
Расширение режима                        : CM (complete main)
Параметр Endianness формата              : Big
Идентификатор кодека                     : A_AC3
Продолжительность                        : 41 м.
Вид битрейта                             : Постоянный
Битрейт                                  : 384 Кбит/сек
Каналы                                   : 6 каналов
Расположение каналов                     : Front: L C R, Side: L R, LFE
Частота                                  : 48,0 КГц
Частота кадров                           : 31,250 кадров/сек (1536 spf)
Метод сжатия                             : С потерями
Размер потока                            : 113 Мбайт (8%)
Заголовок                                : DD 5.1 @ 384 Kbps - Original
Язык                                     : English
Default                                  : Нет
Forced                                   : Нет
Текст #1
Идентификатор                            : 4
Формат                                   : UTF-8
Идентификатор кодека                     : S_TEXT/UTF8
Идентификатор кодека/Информация          : UTF-8 Plain Text
Продолжительность                        : 40 м.
Битрейт                                  : 0 бит/сек
Count of elements                        : 7
Размер потока                            : 188 байт (0%)
Заголовок                                : Forced
Язык                                     : Russian
Default                                  : Да
Forced                                   : Нет
Текст #2
Идентификатор                            : 5
Формат                                   : UTF-8
Идентификатор кодека                     : S_TEXT/UTF8
Идентификатор кодека/Информация          : UTF-8 Plain Text
Продолжительность                        : 40 м.
Битрейт                                  : 97 бит/сек
Count of elements                        : 653
Размер потока                            : 29,0 Кбайт (0%)
Заголовок                                : Full
Язык                                     : Russian
Default                                  : Нет
Forced                                   : Нет
Текст #3
Идентификатор                            : 6
Формат                                   : UTF-8
Идентификатор кодека                     : S_TEXT/UTF8
Идентификатор кодека/Информация          : UTF-8 Plain Text
Продолжительность                        : 40 м.
Битрейт                                  : 78 бит/сек
Count of elements                        : 912
Размер потока                            : 23,2 Кбайт (0%)
Заголовок                                : CC
Язык                                     : English
Default                                  : Нет
Forced                                   : Нет
[/spoiler]

Внимание! Раздача ведётся путём добавления новых серий

Внимание! Раздача ведётся путём добавления новых серий; при каждом добавлении создаётся новый торрент. Чтобы начать докачку новой серии, пользователям необходимо сделать следующее:
(1) остановить скачивание,
(2) удалить старый торрент у себя из клиента (старые серии удалять не надо),
(3) скачать новый торрент и запустить его у себя в клиенте вместо старого, при этом указать клиенту путь в старую папку куда и должно происходить скачивание новых серий.
Ваш клиент при этом должен произвести хеширование (проверку) старой папки (если не производит сам - помогите ему сделать это), и будет докачивать только те серии которых у вас ещё нет. Старые серии при этом не удаляются, а продолжают раздаваться!
Eсли вы уже удалили старые серии, то предотвратить повторную закачку старых серий можно, отжав галочку в соответствующих местах при запуске нового торрента. По возможности, желательно не удалять старые серии как можно дольше чтобы релизёр не столько продолжал раздавать старые серии, а смог сконцентрироваться на новых.
Вне форума [Профиль] [ЛС]
Показать сообщения:    
Ответить на тему

Текущее время: Сегодня 15:08

Часовой пояс: GMT + 3



Вы не можете начинать темы
Вы не можете отвечать на сообщения
Вы не можете редактировать свои сообщения
Вы не можете удалять свои сообщения
Вы не можете голосовать в опросах
Вы не можете прикреплять файлы к сообщениям
Вы не можете скачивать файлы