Сегодня идет свободное скачивание без начисления Download

Няня для идиотки / Idiotsitter / Сезон: 1 / Серии: 1-5 из 10 (Джефф Томсич, Николас Йасеновец, Кристиан Хоффман, Кайл Ньюачек) [2016, комедия, WEB-DL 720p] Original + Sub Rus (N-Team) + Sub Eng

Ответить на тему
 
Автор
Сообщение

Omen ®

Стаж: 5 лет 10 месяцев

Сообщений: 184329

Торрент-статистика

Пост 23-Мар-2016 18:00

[Цитировать]

Няня для идиотки / Idiotsitter Год выпуска: 2016
Страна: США
Жанр: комедия
Продолжительность: ~ 00:20:00
Перевод: Субтитры-Режиссёр: Джефф Томсич, Николас Йасеновец, Кристиан Хоффман, Кайл Ньюачек-В ролях: Джиллиан Белл, Шарлотта Ньюхаус, Стивен Рут, Лиза Де Радзо, Дженнифер Элиз Кокс, Стив Берг, Тинг Пу, Лаура Белл Банди, Дональд Ли, Мэтт Миллер и др.-Описание: В центре событий комедийного сериала Idiotsitter — молодая женщина по имени Билли, выпускница Гарварда, испытывающая финансовые трудности. В надежде немного подзаработать она решает устроиться няней в одну очень богатую семью. Пройдя собеседование, Билли вскоре с удивлением узнает, что ее подопечная — взрослая девушка, которая приговорена судом к домашнему аресту из-за своего непристойного поведения.-Качество: WEB-DL 720p
Формат: MKV
Видео кодек: H.264
Аудио кодек: AAC
Видео: 1280x718 (16:9), 23.976 fps, ~4000 kbps avg, ~0.180 bit/pixel
Аудио: 48 kHz, AAC, 2 ch, ~160.00 kbps avg Original
Субтитры: Русские, Английские-Перевод: N-Team
Переводчики: Darayavaush, lady_chipsa, Anna_Gerts-Сэмпл / TVRAGE / TV.com / IMDB / КиноПоиск-

MediaInfo

Код:
General
Unique ID                   : 178151863716612595709317435763411447965 (0x8606CD07A71B1CC995D88BB9A6F8F09D)
Complete name               : G:\000\Idiotsitter.2016.S01.WEB-DL.720p.Sub.Rus.Eng-alekartem\Idiotsitter.2016.S01E01.WEB-DL.720p.Sub.Rus.Eng-alekartem.mkv
Format                      : Matroska
Format version              : Version 4 / Version 2
File size                   : 634 MiB
Duration                    : 21mn 43s
Overall bit rate            : 4 083 Kbps
Encoded date                : UTC 2016-03-11 14:56:25
Writing application         : mkvmerge v8.9.0 ('Father Daughter') 32bit
Writing library             : libebml v1.3.3 + libmatroska v1.4.4
Cover                       : Yes
Attachments                 : cover.jpg
Video
ID                          : 1
Format                      : AVC
Format/Info                 : Advanced Video Codec
Format profile              : High@L3.1
Format settings, CABAC      : No
Format settings, ReFrames   : 2 frames
Codec ID                    : V_MPEG4/ISO/AVC
Duration                    : 21mn 43s
Bit rate                    : 3 901 Kbps
Width                       : 1 280 pixels
Height                      : 718 pixels
Display aspect ratio        : 16:9
Frame rate mode             : Constant
Frame rate                  : 23.976 (24000/1001) fps
Color space                 : YUV
Chroma subsampling          : 4:2:0
Bit depth                   : 8 bits
Scan type                   : Progressive
Bits/(Pixel*Frame)          : 0.177
Stream size                 : 606 MiB (96%)
Language                    : English
Default                     : Yes
Forced                      : No
Color range                 : Limited
Color primaries             : BT.709
Transfer characteristics    : BT.709
Matrix coefficients         : BT.709
Audio
ID                          : 2
Format                      : AAC
Format/Info                 : Advanced Audio Codec
Format profile              : LC
Codec ID                    : A_AAC
Duration                    : 21mn 43s
Bit rate                    : 150 Kbps
Channel(s)                  : 2 channels
Channel positions           : Front: L R
Sampling rate               : 48.0 KHz
Frame rate                  : 46.875 fps (1024 spf)
Compression mode            : Lossy
Stream size                 : 23.3 MiB (4%)
Language                    : English
Default                     : Yes
Forced                      : No
Text #1
ID                          : 3
Format                      : UTF-8
Codec ID                    : S_TEXT/UTF8
Codec ID/Info               : UTF-8 Plain Text
Duration                    : 21mn 2s
Bit rate                    : 160 bps
Count of elements           : 541
Stream size                 : 24.7 KiB (0%)
Title                       : N-Team
Language                    : Russian
Default                     : Yes
Forced                      : No
Text #2
ID                          : 4
Format                      : UTF-8
Codec ID                    : S_TEXT/UTF8
Codec ID/Info               : UTF-8 Plain Text
Duration                    : 21mn 20s
Bit rate                    : 154 bps
Count of elements           : 611
Stream size                 : 24.1 KiB (0%)
Language                    : English
Default                     : No
Forced                      : No
[/spoiler]

Скриншоты

Внимание! Раздача ведется путем добавления новых серий

Внимание! Раздача ведётся путём добавления новых серий; при каждом добавлении создаётся новый торрент. Чтобы начать докачку новой серии, пользователям необходимо сделать следующее:
(1) остановить скачивание,
(2) удалить старый торрент-файл у себя из клиента (старые серии удалять не надо),
(3) скачать новый торрент-файл из раздачи и запустить его у себя в клиенте вместо старого, при этом указать клиенту путь в старую папку, куда и должно происходить скачивание новых серий.
Ваш клиент при этом должен произвести хеширование (проверку) старой папки (если не производит сам - помогите ему сделать это), и будет докачивать только те серии, которых у Вас ещё нет. Старые серии при этом не удаляются, а продолжают раздаваться!
Eсли Вы уже посмотрели и удалили старые серии, то предотвратить повторную закачку старых серий можно, сняв галочки в соответсвующих местах при запуске нового торрента. По возможности, желательно не удалять старые серии как можно дольше чтобы релизёр не столько продолжал раздавать старые серии, сколько сконцентрироваться на новых.
Вне форума [Профиль] [ЛС]
Показать сообщения:    
Ответить на тему

Текущее время: Сегодня 03:25

Часовой пояс: GMT + 3



Вы не можете начинать темы
Вы не можете отвечать на сообщения
Вы не можете редактировать свои сообщения
Вы не можете удалять свои сообщения
Вы не можете голосовать в опросах
Вы не можете прикреплять файлы к сообщениям
Вы не можете скачивать файлы