Сегодня идет свободное скачивание без начисления Download

Брод Сити / Broad City / Сезон: 3 / Серии: 1-5 из 10 (Люсия Аньелло, Николас Йасеновец, Джон Ли) [2014, комедия, HDTVRip-AVC] Original + Sub Rus (Notabenoid) + Sub Eng

Ответить на тему
 
Автор
Сообщение

Omen ®

Стаж: 5 лет 11 месяцев

Сообщений: 184329

Торрент-статистика

Пост 23-Мар-2016 15:33

[Цитировать]

Брод Сити / Broad City Год выпуска: 2014
Страна: США
Жанр: комедия
Продолжительность: ~ 00:22:00
Перевод: Субтитры [Notabenoid]
Режиссёр: Люсия Аньелло, Николас Йасеновец, Джон Ли-В ролях: Стивен Шнайдер, Эбби Джейкобсон, Илана Глейзер, Хэннибал Бёресс, Джон Гемберлинг, Артуро Кастро, Пол Доунс, Крис Гезерд, Джейсон Хамбл, Фред Армизен и др.-Описание: «Брод Сити» – комедия от канала Comedy Central о жизни двух подруг, Эбби и Иланы, в Нью-Йорке. Их проблемы и простые радости становятся объектом для по-настоящему необычного, а иногда и безумного юмора. Свежий взгляд на то, как живётся в мировой столице двум молодым девушкам с маленьком зарплатой и большими, но так знакомыми нам всем, трудностями.
Яркие персонажи, смелые шутки и свежий, весьма абсурдистский взгляд на почти типичные вещи – вот, что характеризует этот сериал.
В его основе – вебсериал, выходивший с 2009 по 2011, созданный Эбби и Иланой, которые являются подругами и в реальной жизни.
Одним из исполнительных продюсеров является небезызвестная Эми Полер, что гарантирует не только качество, но и возможность увидеть здесь бывших звёзд SNL в ярких камео.-Качество: HDTVRip-AVC
Формат: MP4
Видео кодек: H.264
Аудио кодек: AAC
Видео: 720x404, 23.976 fps, x264 ~1300 kbps avg, 0.188 bit/pixel
Аудио: 48 kHz, AAC LC, 2 ch, ~120.00 kbps avg
Субтитры: Русские (Notabenoid), Английские
Перевод: Katakimiku, m_e_v.-Сэмпл / TV.com / TVRAGE / IMDB / КиноПоиск-

MediaInfo

Код:
General
Complete name               : G:\000\Broad.City.S03.HDTV.x264\Broad.City.S03E01.HDTV.x264.mp4
Format                      : MPEG-4
Format profile              : Base Media
Codec ID                    : isom (isom/avc1/iso6)
File size                   : 214 MiB
Duration                    : 20mn 58s
Overall bit rate mode       : Variable
Overall bit rate            : 1 429 Kbps
Encoded date                : UTC 2016-02-18 03:03:31
Tagged date                 : UTC 2016-02-18 03:03:31
Video
ID                          : 1
Format                      : AVC
Format/Info                 : Advanced Video Codec
Format profile              : High@L3.1
Format settings, CABAC      : Yes
Format settings, ReFrames   : 8 frames
Codec ID                    : avc1
Codec ID/Info               : Advanced Video Coding
Duration                    : 20mn 58s
Bit rate                    : 1 309 Kbps
Maximum bit rate            : 5 206 Kbps
Width                       : 720 pixels
Height                      : 404 pixels
Display aspect ratio        : 16:9
Frame rate mode             : Constant
Frame rate                  : 23.976 (24000/1001) fps
Color space                 : YUV
Chroma subsampling          : 4:2:0
Bit depth                   : 8 bits
Scan type                   : Progressive
Bits/(Pixel*Frame)          : 0.188
Stream size                 : 196 MiB (92%)
Writing library             : x264 core 148 r2665 a01e339
Encoding settings           : cabac=1 / ref=8 / deblock=1:0:0 / analyse=0x3:0x133 / me=umh / subme=9 / psy=1 / psy_rd=1.00:0.00 / mixed_ref=1 / me_range=16 / chroma_me=1 / trellis=2 / 8x8dct=1 / cqm=0 / deadzone=21,11 / fast_pskip=1 / chroma_qp_offset=-2 / threads=12 / lookahead_threads=1 / sliced_threads=0 / nr=0 / decimate=1 / interlaced=0 / bluray_compat=0 / constrained_intra=0 / bframes=3 / b_pyramid=2 / b_adapt=2 / b_bias=0 / direct=3 / weightb=1 / open_gop=0 / weightp=2 / keyint=240 / keyint_min=23 / scenecut=40 / intra_refresh=0 / rc_lookahead=60 / rc=crf / mbtree=1 / crf=19.0 / qcomp=0.60 / qpmin=0 / qpmax=69 / qpstep=4 / vbv_maxrate=17500 / vbv_bufsize=17500 / crf_max=0.0 / nal_hrd=none / filler=0 / ip_ratio=1.40 / aq=1:1.00
Encoded date                : UTC 2016-02-18 03:03:31
Tagged date                 : UTC 2016-02-18 03:03:33
Color range                 : Limited
Matrix coefficients         : BT.709
Audio
ID                          : 2
Format                      : AAC
Format/Info                 : Advanced Audio Codec
Format profile              : LC
Codec ID                    : 40
Duration                    : 20mn 58s
Bit rate mode               : Variable
Bit rate                    : 116 Kbps
Maximum bit rate            : 143 Kbps
Channel(s)                  : 2 channels
Channel positions           : Front: L R
Sampling rate               : 48.0 KHz
Frame rate                  : 46.875 fps (1024 spf)
Compression mode            : Lossy
Stream size                 : 17.4 MiB (8%)
Language                    : English
Encoded date                : UTC 2016-02-18 02:54:43
Tagged date                 : UTC 2016-02-18 03:03:33
[/spoiler]

Скриншоты

Внимание! Раздача ведётся путём добавления новых серий

Внимание! Раздача ведётся путём добавления новых серий; при каждом добавлении создаётся новый торрент. Чтобы начать докачку новой серии, пользователям необходимо сделать следующее:
(1) остановить скачивание,
(2) удалить старый торрент у себя из клиента (старые серии удалять не надо),
(3) скачать новый торрент и запустить его у себя в клиенте вместо старого, при этом указать клиенту путь в старую папку куда и должно происходить скачивание новых серий.
Ваш клиент при этом должен произвести хеширование (проверку) старой папки (если не производит сам - помогите ему сделать это), и будет докачивать только те серии которых у вас ещё нет. Старые серии при этом не удаляются, а продолжают раздаваться!
Eсли вы уже удалили старые серии, то предотвратить повторную закачку старых серий можно, отжав галочку в соответствующих местах при запуске нового торрента. По возможности, желательно не удалять старые серии как можно дольше чтобы релизёр не столько продолжал раздавать старые серии, а смог сконцентрироваться на новых.
Вне форума [Профиль] [ЛС]
Показать сообщения:    
Ответить на тему

Текущее время: Сегодня 11:11

Часовой пояс: GMT + 3



Вы не можете начинать темы
Вы не можете отвечать на сообщения
Вы не можете редактировать свои сообщения
Вы не можете удалять свои сообщения
Вы не можете голосовать в опросах
Вы не можете прикреплять файлы к сообщениям
Вы не можете скачивать файлы