Сегодня идет свободное скачивание без начисления Download

Голубая кровь / Blue Bloods / Сезон: 6 / Серии: 1-6 (22) (David Barrett) [2015, драма, криминал, детектив, WEB-DL 720p] DVO (Kiitos) + Original

Ответить на тему
 
Автор
Сообщение

Omen ®

Стаж: 5 лет 6 месяцев

Сообщений: 186946

Торрент-статистика

Пост 23-Мар-2016 15:00

[Цитировать]

Голубая кровь / Blue Bloods
Год выпуска: 2015
Страна: США
Жанр: драма, криминал, детектив
Продолжительность: ~42 мин
Перевод: Любительский (двухголосый закадровый) Kiitos
Перевод: irver, fenix996, pIv, Podruga, kobra22
Озвучивание: kiitos, Chertenok
Cведение: kiitos
Режиссёр: David Barrett
В ролях: Дженнифер Винер, Лен Кариу, Уилл Эстес, Бриджет Мойнэхэн, Том Селлек, Донни Уолберг, Майк Хэвок, Флекс Александр, Коллин Клинтон, Дэвид Энзуэло
Описание: 6-й сезон криминально-драматического популярного американского телесериала «Голубая кровь» (оригинальное название Blue Bloods) о семье полицейских из Нью-Йорка.
Первые два сезона получили очень высокие рейтинги и множество положительных отзывов от зрителей, а его создатели, которые также работали над сериалом «Клан Сопрано», получили две премии «Эмми». Основными персонажами сериала является семья Рейганов.
Френк Рейган — глава полиции Нью-Йорка и патриарх семейства Рейганов, которым он управляет столь же дипломатично, как управляет полицией, даже когда имеет дело с политикой, что досаждала его чрезмерно смелому отцу, Генри, когда тот был главой полиции. Источником гордости и беспокойства Френка является его старший сын, Дэнни, опытный детектив, семейный человек и ветеран войны в Ираке, который иногда прибегает к сомнительным методам для раскрытия дел.
Единственная женщина в семье, Эрин, работает помощником прокурора Нью-Йорка, мать-одиночка, которая служит компасом закона для братьев и отца. Джейми — младший из Рейганов, недавно закончил юридический Гарварда и считается «золотым ребенком» семьи. Но он решил следовать семейной традиции, и отказался от работы в престижной юридической фирме, чтобы стать копом.
Качество: WEB-DL 720p
Контейнер: MKV
Видео: AVC, 1280x720 (16:9) 23.976fps 3813 Kbps
Аудио 1: RUS: Dolby AC3 48000Hz 6ch 384kbps
Аудио 2: ENG: Dolby AC3 48000Hz 6ch 384kbps
Субтитры: нет
[url=tracker.php?f=189,2366&nm=Blue+Bloods]Ссылка на предыдущие и альтернативные раздачи[/url]
Сэмпл
Добавлена 6 серия . Торрент обновлен 23.03.2015

MediaInfo

General
Format : Matroska
Format version : Version 4 / Version 2
File size : 1.34 GiB
Duration : 40mn 55s
Overall bit rate : 4 674 Kbps
Encoded date : UTC 2015-11-09 03:44:51
Writing application : mkvmerge v8.3.0 ('Over the Horizon') 64bit
Writing library : libebml v1.3.1 + libmatroska v1.4.2
DURATION : 00:40:55.296000000
NUMBER_OF_FRAMES : 76728
NUMBER_OF_BYTES : 117854208
_STATISTICS_WRITING_APP : mkvmerge v8.3.0 ('Over the Horizon') 64bit
_STATISTICS_WRITING_DATE_UTC : 2015-11-09 03:44:51
_STATISTICS_TAGS : BPS DURATION NUMBER_OF_FRAMES NUMBER_OF_BYTES
Video
ID : 1
Format : AVC
Format/Info : Advanced Video Codec
Format profile : Baseline@L1.3
Format settings, CABAC : No
Format settings, ReFrames : 1 frame
Format settings, GOP : M=1, N=12
Codec ID : V_MPEG4/ISO/AVC
Duration : 40mn 55s
Bit rate : 3 813 Kbps
Width : 1 280 pixels
Height : 720 pixels
Display aspect ratio : 16:9
Frame rate mode : Constant
Frame rate : 23.976 fps
Color space : YUV
Chroma subsampling : 4:2:0
Bit depth : 8 bits
Scan type : Progressive
Bits/(Pixel*Frame) : 0.173
Stream size : 1.09 GiB (82%)
Default : Yes
Forced : No
Audio #1
ID : 2
Format : AC-3
Format/Info : Audio Coding 3
Mode extension : CM (complete main)
Format settings, Endianness : Big
Codec ID : A_AC3
Duration : 40mn 55s
Bit rate mode : Constant
Bit rate : 384 Kbps
Channel(s) : 6 channels
Channel positions : Front: L C R, Side: L R, LFE
Sampling rate : 48.0 KHz
Bit depth : 16 bits
Compression mode : Lossy
Stream size : 112 MiB (8%)
Title : kiitos.tv
Language : Russian
Default : Yes
Forced : No
Audio #2
ID : 3
Format : AC-3
Format/Info : Audio Coding 3
Mode extension : CM (complete main)
Format settings, Endianness : Big
Codec ID : A_AC3
Duration : 40mn 55s
Bit rate mode : Constant
Bit rate : 384 Kbps
Channel(s) : 6 channels
Channel positions : Front: L C R, Side: L R, LFE
Sampling rate : 48.0 KHz
Bit depth : 16 bits
Compression mode : Lossy
Stream size : 112 MiB (8%)
Default : No
Forced : No
Text
ID : 4
Format : UTF-8
Codec ID : S_TEXT/UTF8
Codec ID/Info : UTF-8 Plain Text
Default : Yes
Forced : No

Внимание! Раздача ведётся путём добавления новых серий

Внимание! Раздача ведётся путём добавления новых серий; при каждом добавлении создётся новый торрент. Чтобы начать докачку новой серии, пользователям необходимо сделать следующее:
(1) остановить скачивание,
(2) удалить старый торрент у себя из клиента (старые серии удалять не надо),
(3) скачать новый торрент и запустить его у себя в клиенте вместо старого, при этом указать клиенту путь в старую папку куда и должно происходить скачивание новых серий.
Ваш клиент при этом должен произвести хеширование (проверку) старой папки (если не производит сам - помогите ему сделать это), и будет докачивать только те серии которых у вас ещё нет. Старые серии при этом не удаляются, а продолжают раздаваться!
Eсли вы уже удалили старые серии, то предотвратить повторную закачку старых серий можно, отжав галочку в соответсвующих местах при запуске нового торрента.

Скриншоты

Вне форума [Профиль] [ЛС]
Показать сообщения:    
Ответить на тему

Текущее время: Сегодня 06:22

Часовой пояс: GMT + 3



Вы не можете начинать темы
Вы не можете отвечать на сообщения
Вы не можете редактировать свои сообщения
Вы не можете удалять свои сообщения
Вы не можете голосовать в опросах
Вы не можете прикреплять файлы к сообщениям
Вы не можете скачивать файлы