Сегодня идет свободное скачивание без начисления Download

Родина / Чужой среди своих / Homeland / Сезон: 5 / Серии: 1-12 из 12 (Майкл Куэста, Лесли Линка Глаттер, Кларк Джонсон) [2015, Триллер, драма, детектив, HDTV 1080p] MVO (Amedia) + Original + Eng Subs

Ответить на тему
 
Автор
Сообщение

Omen ®

Стаж: 5 лет 10 месяцев

Сообщений: 184329

Торрент-статистика

Пост 23-Мар-2016 00:00

[Цитировать]

Родина / Чужой среди своих / Homeland- Год выпуска: 2015
Страна: США
Жанр: Триллер, драма, детектив
Продолжительность: ~00:47:00-Перевод: Профессиональный (многоголосый закадровый) | Amedia
Перевод: Профессиональный (многоголосый закадровый) | LostFilm-Режиссёр: Майкл Куэста, Лесли Линка Глаттер, Кларк Джонсон-В ролях: Клэр Дэйнс, Дэмиэн Льюис, Мэнди Пэтинкин, Морена Баккарин, Дэвид Хэрвуд, Джексон Пэйс, Морган Сэйлор, Руперт Френд, Диего Клаттенхофф, Дэвид Марсиано-Описание: В центре сюжета находятся сержант морской пехоты ВМФ США Николас Броди, вернувшийся домой после восьми лет отсутствия без вести в Ираке, и Кэрри Мэтисон, офицер ЦРУ, которая подозревает его в причастности к подготовке террористической атаки на Америку.-- by Nez-Качество: HDTV 1080p
Контейнер: MKV
Видео: 1920x1080 at 25.000 fps, MPEG-4 AVC, ~5000 kbps avg, 0.096 bit/pixel
Аудио: 48 kHz, AC3, 3/2 (L,C,R,l,r) + LFE ch, ~640.00 kbps avg | Amedia
Аудио: 48 kHz, AAC, 2/0 (L,R) ch, ~256.00 kbps avg | Amedia
Аудио: 48 kHz, AAC, 2/0 (L,R) ch, ~256.00 kbps avg
Субтитры: Russian-

Список серий

01. Separation Anxiety / Боязнь разлуки
02. The Tradition of Hospitality / Обычаи гостеприимства
03. Super Powers / Суперспособности
04. Чем отличается эта ночь? / Why Is This Night Different?
05. Лучше звоните Саулу / Better Call Saul
06. Парабиоз / Parabiosis
07. Иволга / Oriole
08. Всё об Элисон / All About Allison
09. Уловка Литвинова / The Litvinov Ruse
10. Новая норма / New Normal
11. Наш человек в Дамаске / Our Man in Damascus
12. Блуждающий огонёк / A False Glimmer
-

MediaInfo

ОбщееУникальный идентификатор : 189110671863817486086089347214877547617 (0x8E4563FCB1F329F8B4DC289B14CA5C61)Полное имя : G:\Movies\Homeland (Season 5) 1080p HDTV\Homeland.S05E01.1080p.HDTV.Rus.Eng.HDCLUB.mkvФормат : MatroskaВерсия формата : Version 4 / Version 2Размер файла : 2,07 ГбайтПродолжительность : 48 м.Общий поток : 6157 Кбит/секДата кодирования : UTC 2015-11-06 02:01:01Программа кодирования : mkvmerge v8.5.1 ('Where you lead I will follow') 64bitБиблиотека кодирования : libebml v1.3.3 + libmatroska v1.4.4
ВидеоИдентификатор : 1Формат : AVCФормат/Информация : Advanced Video CodecПрофиль формата : High@L4.1Параметр CABAC формата : ДаПараметр ReFrames формата : 4 кадраИдентификатор кодека : V_MPEG4/ISO/AVCПродолжительность : 48 м.Битрейт : 5000 Кбит/секШирина : 1920 пикселейВысота : 1080 пикселейСоотношение сторон : 16:9Режим частоты кадров : ПостоянныйЧастота кадров : 25,000 кадров/секЦветовое пространство : YUVСубдискретизация насыщенности : 4:2:0Битовая глубина : 8 битТип развёртки : ПрогрессивнаяБит/(Пиксели*Кадры) : 0.096Размер потока : 1,68 Гбайт (81%)Библиотека кодирования : x264 core 142 r2491 24e4fedНастройки программы : cabac=1 / ref=3 / deblock=1:1:-1 / analyse=0x3:0x133 / me=umh / subme=9 / psy=1 / psy_rd=1.00:0.00 / mixed_ref=1 / me_range=48 / chroma_me=1 / trellis=2 / 8x8dct=1 / cqm=0 / deadzone=21,11 / fast_pskip=0 / chroma_qp_offset=-2 / threads=48 / lookahead_threads=5 / sliced_threads=0 / slices=4 / nr=0 / decimate=1 / interlaced=0 / bluray_compat=0 / constrained_intra=0 / bframes=6 / b_pyramid=2 / b_adapt=2 / b_bias=0 / direct=3 / weightb=1 / open_gop=0 / weightp=2 / keyint=250 / keyint_min=22 / scenecut=40 / intra_refresh=0 / rc_lookahead=50 / rc=2pass / mbtree=1 / bitrate=5000 / ratetol=1.0 / qcomp=0.70 / qpmin=10 / qpmax=49 / qpstep=4 / cplxblur=20.0 / qblur=0.5 / vbv_maxrate=9000 / vbv_bufsize=2500 / nal_hrd=none / filler=0 / ip_ratio=1.40 / aq=1:1.00Язык : EnglishDefault : ДаForced : Нет
Аудио #1Идентификатор : 2Формат : AC-3Формат/Информация : Audio Coding 3Расширение режима : CM (complete main)Параметр Endianness формата : BigИдентификатор кодека : A_AC3Продолжительность : 48 м.Вид битрейта : ПостоянныйБитрейт : 640 Кбит/секКаналы : 6 каналовРасположение каналов : Front: L C R, Side: L R, LFEЧастота : 48,0 КГцЧастота кадров : 31,250 кадров/сек (1536 spf)Метод сжатия : С потерямиРазмер потока : 220 Мбайт (10%)Язык : RussianDefault : ДаForced : Нет
Аудио #2Идентификатор : 3Формат : AACФормат/Информация : Advanced Audio CodecПрофиль формата : LCИдентификатор кодека : A_AACПродолжительность : 48 м.Битрейт : 256 Кбит/секКаналы : 2 каналаРасположение каналов : Front: L RЧастота : 48,0 КГцЧастота кадров : 46,875 кадров/сек (1024 spf)Метод сжатия : С потерямиРазмер потока : 88,0 Мбайт (4%)Язык : RussianDefault : НетForced : Нет
Аудио #3Идентификатор : 4Формат : AACФормат/Информация : Advanced Audio CodecПрофиль формата : LCИдентификатор кодека : A_AACПродолжительность : 48 м.Битрейт : 256 Кбит/секКаналы : 2 каналаРасположение каналов : Front: L RЧастота : 48,0 КГцЧастота кадров : 46,875 кадров/сек (1024 spf)Метод сжатия : С потерямиРазмер потока : 88,0 Мбайт (4%)Язык : EnglishDefault : НетForced : Нет
ТекстИдентификатор : 5Формат : UTF-8Идентификатор кодека : S_TEXT/UTF8Идентификатор кодека/Информация : UTF-8 Plain TextПродолжительность : 42 м.Битрейт : 94 бит/секCount of elements : 579Размер потока : 29,8 Кбайт (0%)Язык : RussianDefault : НетForced : Нет
-

Скриншоты

-
Вне форума [Профиль] [ЛС]
Похожие темы
Форум Тема Автор Торрент Отв. Посл. сообщение
./templates/default/images/folder_dl.gif Фантастика, фэнтези, ужасы, мистика Олег Дивов | Родина слонов (2017) [FB2] }{@R0N
1 | 0

0 | 7595

10

2017-02-18 20:53
}{@R0N Последнее
./templates/default/images/folder_dl.gif Фантастика, фэнтези, ужасы, мистика Георгий Смородинский | Цикл «Семнадцатое обновление» [9 книг] (2015-2018) [FB2] XP1971
0 | 1

0 | 471

7

2018-07-07 18:27
XP1971 Последнее
Показать сообщения:    
Ответить на тему

Текущее время: Сегодня 14:44

Часовой пояс: GMT + 3



Вы не можете начинать темы
Вы не можете отвечать на сообщения
Вы не можете редактировать свои сообщения
Вы не можете удалять свои сообщения
Вы не можете голосовать в опросах
Вы не можете прикреплять файлы к сообщениям
Вы не можете скачивать файлы