Сегодня идет свободное скачивание без начисления Download

Безрассудный / Reckless / Сезон: 1 / Серии: 1-13 из 13 (Джон Грэй, Майкл Аптед, Джошуа Батлер) [2014, драма, детектив, криминал, HDTVRip] DVO (HamsterStudio) + Original + Sub Rus

Ответить на тему
 
Автор
Сообщение

Omen ®

Стаж: 5 лет 10 месяцев

Сообщений: 184329

Торрент-статистика

Пост 21-Мар-2016 12:00

[Цитировать]

Безрассудный / Reckless

Год выпуска: 2014
Страна: США
Жанр: драма, детектив, криминал
Продолжительность: 00:43:29
Перевод: Любительский (двухголосый закадровый) - HamsterStudio

Режиссёр: Джон Грэй, Майкл Аптед, Джошуа Батлер
В ролях: Анна Вуд, Кэм Жиганде, Джейсон Дэвисон, Изабель Майерс, Хлоя Перрин, Ричард Джон, Скотт Пойтресс, Джесси Уорд, Клер Бронсон, Грэй Хоукс
Описание: Джеми Сойер — прекрасный адвокат, защищающая в суде небогатых людей и тех, которых ложно обвинили. Рой Рейдер — неумолимый и не отклоняющийся от своих принципов прокурор, который постоянно настаивает на том, чтобы обвиняемые получили наибольшие сроки заключения. Рой находится в данный момент в разводе и растит 2-их детей. Неудачный опыт семейной жизни превратил его в скрытного человека. На первый взгляд кажется, что между этими двумя людьми нет никаких точек соприкосновения. Однако по воле судьбы Джеми и Рой встречаются, и между ними загорается страстный роман. Поскольку герои работают вместе, они вынуждены держать втайне ото всех свои отношения, и довольно скоро они оказываются впутанными в оглушительный скандал.
Сэмпл
Качество: HDTVRip
Формат: AVI
Видео: 704x400 (1.76:1), 23.976 fps, XviD build 73 ~1799 kbps avg, 0.27 bit/pixel
Аудио: 48 kHz, AC3 Dolby Digital, 2/0 (L,R) ch, ~192 kbps - двухголосый
Аудио: 48 kHz, AC3 Dolby Digital, 3/2 (L,C,R,l,r) + LFE ch, ~384 kbps - оригинал
Субтитры: русские

MediaInfo

Общее
Полное имя : H:\Reckless.2014.hdtvrip_[teko]\s01e01_Pilot.avi
Формат : AVI
Формат/Информация : Audio Video Interleave
Размер файла : 743 Мбайт
Продолжительность : 43 м.
Общий поток : 2390 Кбит/сек
Программа кодирования : VirtualDubMod 1.5.10.3 | www.virtualdub-fr.org || (build 2550/release)
Библиотека кодирования : VirtualDubMod build 2550/release
Видео
Идентификатор : 0
Формат : MPEG-4 Visual
Профиль формата : Advanced Simple@L5
Параметр BVOP формата : 2
Параметр QPel формата : Нет
Параметр GMC формата : Без точки перехода
Параметр матрицы формата : Выборочная
Идентификатор кодека : XVID
Идентификатор кодека/Подсказка : XviD
Продолжительность : 43 м.
Битрейт : 1800 Кбит/сек
Ширина : 704 пикселя
Высота : 400 пикселей
Соотношение сторон : 16:9
Частота кадров : 23,976 кадра/сек
Цветовое пространство : YUV
Субдискретизация насыщенности : 4:2:0
Битовая глубина : 8 бит
Тип развёртки : Прогрессивная
Метод сжатия : С потерями
Бит/(Пиксели*Кадры) : 0.267
Размер потока : 560 Мбайт (75%)
Библиотека кодирования : XviD 73
Аудио #1
Идентификатор : 1
Формат : AC-3
Формат/Информация : Audio Coding 3
Расширение режима : CM (complete main)
Параметр Endianness формата : Big
Идентификатор кодека : 2000
Продолжительность : 43 м.
Вид битрейта : Постоянный
Битрейт : 192 Кбит/сек
Каналы : 2 канала
Расположение каналов : Front: L R
Частота : 48,0 КГц
Битовая глубина : 16 бит
Метод сжатия : С потерями
Размер потока : 59,7 Мбайт (8%)
Выравнивание : Разделение по промежуткам
Продолжительность промежутка : 42 мс. (1,00 видеокадр)
Время предзагрузки промежутка : 500 мс.
Аудио #2
Идентификатор : 2
Формат : AC-3
Формат/Информация : Audio Coding 3
Расширение режима : CM (complete main)
Параметр Endianness формата : Big
Идентификатор кодека : 2000
Продолжительность : 43 м.
Вид битрейта : Постоянный
Битрейт : 384 Кбит/сек
Каналы : 6 каналов
Расположение каналов : Front: L C R, Side: L R, LFE
Частота : 48,0 КГц
Битовая глубина : 16 бит
Метод сжатия : С потерями
Размер потока : 119 Мбайт (16%)
Выравнивание : Разделение по промежуткам
Продолжительность промежутка : 42 мс. (1,00 видеокадр)
Время предзагрузки промежутка : 500 мс.
--
Вне форума [Профиль] [ЛС]
Показать сообщения:    
Ответить на тему

Текущее время: Сегодня 11:05

Часовой пояс: GMT + 3



Вы не можете начинать темы
Вы не можете отвечать на сообщения
Вы не можете редактировать свои сообщения
Вы не можете удалять свои сообщения
Вы не можете голосовать в опросах
Вы не можете прикреплять файлы к сообщениям
Вы не можете скачивать файлы