Сегодня идет свободное скачивание без начисления Download

Древние / Первородные / The Originals / Сезон: 2 / Серии: 1-22 из 22 (Крис Грисмер, Джесси Уарн, Майкл А. Алловиц) [2015, ужасы, фантастика, боевик, драма, приключения, WEB-DLRip] MVO (LostFilm)

Ответить на тему
 
Автор
Сообщение

Omen ®

Стаж: 5 лет 9 месяцев

Сообщений: 184393

Торрент-статистика

Пост 21-Мар-2016 09:00

[Цитировать]

Древние / Первородные / The Originals

Год выпуска: 2015
Страна: США
Жанр: ужасы, фантастика, боевик, драма, приключения
Продолжительность: 00:43:00
Перевод: Профессиональный (многоголосый закадровый) - LostFilm

Режиссёр: Крис Грисмер, Джесси Уарн, Майкл А. Алловиц
В ролях: Джозеф Морган, Дэниэл Гиллис, Чарльз Майкл Дэвис, Каллард Харрис, Александра Фикен, Даниэль Кэмпбелл, Эка Дарвилл, Клер Холт, Даниэлла Пинеда, Леа Пайпс
Описание: До того, как появились вампиры, миром правили Первородные. Спустя долгие годы Клаус Майклсон возвращается в родной Новый Орлеан, который он когда-то помог построить. Там он встречает своего старого друга и ученика Марселя. Последний навел в городе свои порядки и установил строгие правила на колдовство ведьм. Все это не касалось Клауса (который особо и не интересовался), пока однажды он не услышал, как бьется сердце его еще не рожденного ребенка. Появление наследника Первородного никак не укладывалось в новые порядки Марселя, поэтому теперь Клаусу предстоит сделать важнейший выбор в своей жизни.
Сэмпл
Качество: WEB-DLRip
Формат: AVI
Видео: 704x400 (1.76:1), 23.976 fps, XviD build 73 ~1999 kbps avg, 0.30 bit/pixel
Аудио: 48 kHz, AC3 Dolby Digital, 3/2 (L,C,R,l,r) + LFE ch, ~384 kbps
Субтитры: отсутствуют

Список серий

01 - Возрождение / Rebirth
02 - Живы и здоровы / Alive and Kicking
03 - Каждый сын матери / Every Mother's Son
04 - Живи и дай умереть / Live and Let Die
05 - Красная дверь / Red Door
06 - Колесо в колесе / Wheel Inside the Wheel
07 - В погоне за хвостом Дьявола / Chasing the Devil's Tail
08 - Беззаботные братья / The Brothers That Care Forgot
09 - Карта мгновений / The Map of Moments
10 - Собираюсь бросить твой флаг в огонь / Gonna Set Your Flag on Fire
11 - Братство проклятых / Brotherhood of the Damned
12 - Святилище / Sanctuary
13 - Дьявол проклят / The Devil Is Damned
14 - Я люблю тебя, прощай / I Love You, Goodbye
15 - Все о тебе спрашивали / They All Asked for You
16 - Спасите мою дущу / Save My Soul
17 - Изысканный мертвец / Exquisite Corpse
18 - У ночи тысячи глаз / Night Has a Thousand Eyes
19 - Когда дамба разрушается / When the Levee Breaks
20 - Город на морском дне / City Beneath the Sea
21 - Огонь с огнем / Fire with Fire
22 - Прах к праху / Ashes to Ashes

MediaInfo

Общее
Полное имя : D:\Мои раздачи 3\The.Originals.web-dlrip_[teko]\Season_02\s02e01_Rebirth.avi
Формат : AVI
Формат/Информация : Audio Video Interleave
Размер файла : 729 Мбайт
Продолжительность : 42 м.
Общий поток : 2393 Кбит/сек
Программа кодирования : VirtualDubMod 1.5.10.3 | www.virtualdub-fr.org || (build 2550/release)
Библиотека кодирования : VirtualDubMod build 2550/release
Видео
Идентификатор : 0
Формат : MPEG-4 Visual
Профиль формата : Advanced Simple@L5
Параметр BVOP формата : 2
Параметр QPel формата : Нет
Параметр GMC формата : Без точки перехода
Параметр матрицы формата : Выборочная
Идентификатор кодека : XVID
Идентификатор кодека/Подсказка : XviD
Продолжительность : 42 м.
Битрейт : 2000 Кбит/сек
Ширина : 704 пикселя
Высота : 400 пикселей
Соотношение сторон : 16:9
Частота кадров : 23,976 кадра/сек
Цветовое пространство : YUV
Субдискретизация насыщенности : 4:2:0
Битовая глубина : 8 бит
Тип развёртки : Прогрессивная
Метод сжатия : С потерями
Бит/(Пиксели*Кадры) : 0.296
Размер потока : 609 Мбайт (84%)
Библиотека кодирования : XviD 73
Аудио
Идентификатор : 1
Формат : AC-3
Формат/Информация : Audio Coding 3
Расширение режима : CM (complete main)
Параметр Endianness формата : Big
Идентификатор кодека : 2000
Продолжительность : 42 м.
Вид битрейта : Постоянный
Битрейт : 384 Кбит/сек
Каналы : 6 каналов
Расположение каналов : Front: L C R, Side: L R, LFE
Частота : 48,0 КГц
Битовая глубина : 16 бит
Метод сжатия : С потерями
Размер потока : 117 Мбайт (16%)
Выравнивание : Разделение по промежуткам
Продолжительность промежутка : 42 мс. (1,00 видеокадр)
Время предзагрузки промежутка : 500 мс.
--
Вне форума [Профиль] [ЛС]
Похожие темы
Форум Тема Автор Торрент Отв. Посл. сообщение
./templates/default/images/folder_dl.gif RPG The Elder Scrolls 5: Skyrim Special Edition / Древние Свитки 5: Скайрим Специальное издание [Repack] [RUS / ENG] (2016) (1.3.5.0.8/ ESSE 0.1) Omen
1 | 0

0 | 1695

2

2016-11-29 01:00
Omen Последнее
Показать сообщения:    
Ответить на тему

Текущее время: Сегодня 15:06

Часовой пояс: GMT + 3



Вы не можете начинать темы
Вы не можете отвечать на сообщения
Вы не можете редактировать свои сообщения
Вы не можете удалять свои сообщения
Вы не можете голосовать в опросах
Вы не можете прикреплять файлы к сообщениям
Вы не можете скачивать файлы