Сегодня идет свободное скачивание без начисления Download

Карнавал / CARNIVALE / Сезон: 2 / Серии: 1-12 из 12 (Родриго Гарсия, Джереми Подесва, Джек Бендер) [2005, Фэнтези, триллер, драма, детектив, WEB-DL 720p] Dub (Домашний) + MVO (НТВ+) + Original

Ответить на тему
 
Автор
Сообщение

Omen ®

Стаж: 5 лет 10 месяцев

Сообщений: 184329

Торрент-статистика

Пост 20-Мар-2016 18:00

[Цитировать]

Карнавал / CARNIVALE
Год выпуска: 2005
Страна: США
Жанр: Фэнтези, триллер, драма, детектив
Продолжительность: ~50 мин
Перевод 1: Профессиональный (дублированный) Домашний
Перевод 2: Профессиональный (многоголосый закадровый) НТВ+
Режиссёр: Родриго Гарсия, Джереми Подесва, Джек Бендер
В ролях: Майкл Дж. Андерсон, Клэнси Браун, Тим ДиКей, Ник Стал, Эдриэнн Барбо, Клеа Дюваль, Синтия Эттинджер, Карла Галло, Тоби Хасс, Эми Мэдиган, Дебра Кристоферсон и др.
Описание: Америка, 1934 год, Средний Запад. 18-летний беглец Бен Хокинс находит приют в странствующем цирке «Карнавал», в котором есть: цыганка Софи, читающая карты Таро, ее парализованная мать, владеющая телекинезом, слепой профессор Лодз, читающий чужие мысли, бородатая женщина Лайла, сиамские близнецы, укротительница змей Руте, а также карлик-надзиратель Самсон. Владельцем цирка является загадочный Хозяин, который имеет определенные планы относительно молодого Хокинса, поскольку тот скрывает тайный дар. Он может исцелять больных и оживлять мертвых, правда, ценой другой жизни. А еще у Бена бывают странные сны. И он не единственный, кто их видит. У проповедника из Калифорнии Джастина Кроу, который когда-то встречался с Беном, бывают такие же самые видения. Джастин считает, что выполняет Божью волю. Однако со временем действия священника приводят к странным и трагическим последствиям. В эту «последнюю большую эпоху магии» конфликт между Беном и Джастином оказывается борьбой Добра и Зла, и неизвестно, кто на чьей стороне.
Сэмпл
Качество: WEB-DL 720p
Контейнер: MKV
Видео: 1280x720 (16:9), 23.976 fps, ~ 4000 kbps
Аудио 1: Русский (AC3, 2 ch, 192 kbps)
Аудио 2: Русский (AC3, 2 ch, 192 kbps)
Аудио 3: Английский (AC3, 6 ch, 384 kbps)
Субтитры: Русские, английские

Список серий

Серия 1 - Серия 12

MediaInfo

General
Unique ID : 208013893829130402038495635226428597931 (0x9C7E04C95A808CA78746F589838A66AB)
Complete name : F:\CARNIVALE Season 2\Серия 1.mkv
Format : Matroska
Format version : Version 4 / Version 2
File size : 1.71 GiB
Duration : 50mn 47s
Overall bit rate : 4 830 Kbps
Movie name : ReJIiZ MediaClub by BenderBEST
Encoded date : UTC 2015-03-23 14:48:09
Writing application : mkvmerge v6.9.1 ('Blue Panther') 32bit built on Apr 18 2014 18:15:44
Writing library : libebml v1.3.0 + libmatroska v1.4.1
Video
ID : 1
Format : AVC
Format/Info : Advanced Video Codec
Format profile : High@L3.1
Format settings, CABAC : No
Format settings, ReFrames : 2 frames
Format settings, GOP : N=1
Codec ID : V_MPEG4/ISO/AVC
Duration : 50mn 47s
Bit rate : 3 998 Kbps
Width : 1 280 pixels
Height : 720 pixels
Display aspect ratio : 16:9
Frame rate mode : Constant
Frame rate : 23.976 fps
Color space : YUV
Chroma subsampling : 4:2:0
Bit depth : 8 bits
Scan type : Progressive
Bits/(Pixel*Frame) : 0.181
Stream size : 1.42 GiB (83%)
Language : English
Default : No
Forced : No
Color range : Limited
Color primaries : BT.709
Transfer characteristics : BT.709
Matrix coefficients : BT.709
Audio #1
ID : 2
Format : AC-3
Format/Info : Audio Coding 3
Mode extension : CM (complete main)
Format settings, Endianness : Big
Codec ID : A_AC3
Duration : 50mn 47s
Bit rate mode : Constant
Bit rate : 192 Kbps
Channel(s) : 2 channels
Channel positions : Front: L R
Sampling rate : 48.0 KHz
Frame rate : 31.250 fps (1536 spf)
Compression mode : Lossy
Stream size : 69.7 MiB (4%)
Title : Русский дубляж / Домашний
Language : Russian
Default : Yes
Forced : No
Audio #2
ID : 3
Format : AC-3
Format/Info : Audio Coding 3
Mode extension : CM (complete main)
Format settings, Endianness : Big
Codec ID : A_AC3
Duration : 50mn 47s
Bit rate mode : Constant
Bit rate : 160 Kbps
Channel(s) : 2 channels
Channel positions : Front: L R
Sampling rate : 48.0 KHz
Frame rate : 31.250 fps (1536 spf)
Compression mode : Lossy
Stream size : 58.1 MiB (3%)
Title : НТВ+ / Амедия
Language : Russian
Default : No
Forced : No
Audio #3
ID : 4
Format : AC-3
Format/Info : Audio Coding 3
Mode extension : CM (complete main)
Format settings, Endianness : Big
Codec ID : A_AC3
Duration : 50mn 47s
Bit rate mode : Constant
Bit rate : 384 Kbps
Channel(s) : 6 channels
Channel positions : Front: L C R, Side: L R, LFE
Sampling rate : 48.0 KHz
Frame rate : 31.250 fps (1536 spf)
Compression mode : Lossy
Stream size : 139 MiB (8%)
Language : English
Default : No
Forced : No
Text #1
ID : 5
Format : UTF-8
Codec ID : S_TEXT/UTF8
Codec ID/Info : UTF-8 Plain Text
Title : Amedia
Language : Russian
Default : No
Forced : No
Text #2
ID : 6
Format : UTF-8
Codec ID : S_TEXT/UTF8
Codec ID/Info : UTF-8 Plain Text
Language : English
Default : No
Forced : No

Скриншоты

Вне форума [Профиль] [ЛС]
Показать сообщения:    
Ответить на тему

Текущее время: Сегодня 14:44

Часовой пояс: GMT + 3



Вы не можете начинать темы
Вы не можете отвечать на сообщения
Вы не можете редактировать свои сообщения
Вы не можете удалять свои сообщения
Вы не можете голосовать в опросах
Вы не можете прикреплять файлы к сообщениям
Вы не можете скачивать файлы