Сегодня идет свободное скачивание без начисления Download

Любовь / Love / Сезон: 1 / Серии: 1 из 10 (Дин Холлэнд, Джон Слэттери, Стив Бушеми) [2016, Комедия, WEBRip 720p] DVO (Levelin)

Ответить на тему
 
Автор
Сообщение

Omen ®

Стаж: 6 лет 1 месяц

Сообщений: 184308

Торрент-статистика

Пост 20-Мар-2016 03:00

[Цитировать]

--Любовь / Love-- Год выпуска: 2016
Страна: США
Жанр: Комедия
Продолжительность: ~36min
Перевод: Профессиональный двухголосый закадровый [Levelin]-Режиссёр: Дин Холлэнд, Джон Слэттери, Стив Бушеми
В ролях: Гиллиан Джейкобс, Пол Руст, Клаудия О’Доэрти, Джордан Рок, Трейси Томс, Майк Митчелл, Айрис Апатоу, Брига Хилэн, Chris Witaske, Сет Моррис и др.-Описание: Гас — тридцатиоднолетний холостяк, который работает приходящим учителем детей-актёров на съёмочной площадке сериала о ведьмах. В принципе, его можно назвать неудачником, но Гас не вешает нос — когда-нибудь он найдёт любовь и станет настоящим сценаристом (он написал эпизод сериала, на котором работает, но никак не решается подсунуть его «нужным людям»). Микки — тридцатидвухлетняя алкоголичка, не брезгующая и лёгкими наркотиками, которая набралась решимости послать-таки своего инфантильного парня, но завязать с другими вредными привычками не может. Однажды два одиночества встретятся в магазине, и их жизни уже никогда не будут прежними.-Релиз:
Перевод: Dalwynd, alekartem, mwlu
Редактура: alekartem, Dalwynd
Роли озвучивали:
- Ариса Лебедева
- Семён Ващенко-ВНИМАНИЕ! НЕНОРМАТИВНАЯ ЛЕКСИКА!- -Качество: WEBRip
Формат: MKV
Видео: AVC, 1280x720, 16:9, 23.976 fps, 3 418 Kbps
Аудио: AC-3, 48.0 KHz, 2ch., 192 Kbps
Субтитры: отсутствуют

MediaInfo

Format : Matroska
Format version : Version 4 / Version 2
File size : 1.03 GiB
Duration : 40mn 11s
Overall bit rate : 3 684 Kbps
Encoded date : UTC 2016-03-19 21:41:08
Writing application : mkvmerge v8.3.0 ('Over the Horizon') 64bit
Writing library : libebml v1.3.1 + libmatroska v1.4.2
Attachements : Постер.png
DURATION : 00:40:11.040000000
NUMBER_OF_FRAMES : 75345
NUMBER_OF_BYTES : 57864960
_STATISTICS_WRITING_APP : mkvmerge v8.3.0 ('Over the Horizon') 64bit
_STATISTICS_WRITING_DATE_UT : 2016-03-19 21:41:08
_STATISTICS_TAGS : BPS DURATION NUMBER_OF_FRAMES NUMBER_OF_BYTES
Video
ID : 1
Format : AVC
Format/Info : Advanced Video Codec
Format profile : High@L4.1
Format settings, CABAC : Yes
Format settings, ReFrames : 5 frames
Codec ID : V_MPEG4/ISO/AVC
Duration : 40mn 11s
Bit rate : 3 418 Kbps
Width : 1 280 pixels
Height : 720 pixels
Display aspect ratio : 16:9
Frame rate mode : Constant
Frame rate : 23.976 fps
Color space : YUV
Chroma subsampling : 4:2:0
Bit depth : 8 bits
Scan type : Progressive
Bits/(Pixel*Frame) : 0.155
Stream size : 983 MiB (93%)
Writing library : x264 core 148 r2665 a01e339
Encoding settings : cabac=1 / ref=5 / deblock=1:0:0 / analyse=0x3:0x113 / me=umh / subme=8 / psy=1 / psy_rd=1.00:0.00 / mixed_ref=1 / me_range=16 / chroma_me=1 / trellis=1 / 8x8dct=1 / cqm=0 / deadzone=21,11 / fast_pskip=1 / chroma_qp_offset=-2 / threads=12 / lookahead_threads=2 / sliced_threads=0 / nr=0 / decimate=1 / interlaced=0 / bluray_compat=0 / constrained_intra=0 / bframes=3 / b_pyramid=2 / b_adapt=2 / b_bias=0 / direct=3 / weightb=1 / open_gop=0 / weightp=2 / keyint=250 / keyint_min=23 / scenecut=40 / intra_refresh=0 / rc_lookahead=50 / rc=crf / mbtree=1 / crf=18.0 / qcomp=0.60 / qpmin=0 / qpmax=69 / qpstep=4 / ip_ratio=1.40 / aq=1:1.00
Language : English
Default : Yes
Forced : No
Color range : Limited
Matrix coefficients : BT.709
DURATION : 00:40:11.117000000
NUMBER_OF_FRAMES : 57809
NUMBER_OF_BYTES : 1051663605
_STATISTICS_WRITING_APP : mkvmerge v8.3.0 ('Over the Horizon') 64bit
_STATISTICS_WRITING_DATE_UT : 2016-03-19 21:41:08
_STATISTICS_TAGS : BPS DURATION NUMBER_OF_FRAMES NUMBER_OF_BYTES
Audio
ID : 2
Format : AC-3
Format/Info : Audio Coding 3
Mode extension : CM (complete main)
Format settings, Endianness : Big
Codec ID : A_AC3
Duration : 40mn 11s
Bit rate mode : Constant
Bit rate : 192 Kbps
Channel(s) : 2 channels
Channel positions : Front: L R
Sampling rate : 48.0 KHz
Compression mode : Lossy
Stream size : 55.2 MiB (5%)
Title : Levelin
Language : Russian
Default : Yes
Forced : No

Скриншоты

Внимание! Раздача ведется путем добавления новых серий!

Внимание! Раздача ведётся путём добавления новых серий; при каждом добавлении создётся новый торрент. Чтобы начать докачку новой серии, пользователям необходимо сделать следующее:
(1) остановить скачивание,
(2) удалить старый торрент у себя из клиента (старые серии удалять не надо),
(3) скачать новый торрент и запустить его у себя в клиенте вместо старого, при этом указать клиенту путь в старую папку куда и должно происходить скачивание новых серий.
Ваш клиент при этом должен произвести хеширование (проверку) старой папки (если не производит сам - помогите ему сделать это), и будет докачивать только те серии которых у вас ещё нет. Старые серии при этом не удаляются, а продолжают раздаваться!
Eсли вы уже удалили старые серии, то предотвратить повторную закачку старых серий можно, отжав галочку в соответсвующих местах при запуске нового торрента
Вне форума [Профиль] [ЛС]
Похожие темы
Форум Тема Автор Торрент Отв. Посл. сообщение
./templates/default/images/folder_dl.gif Приключения и квесты Mahjong Detective: The Stolen Love / Маджонг Детектив. Похищенная Любовь [P] [RUS] (2015) Omen
5 | 0

0 | 1281

22

2015-06-08 21:00
Omen Последнее
./templates/default/images/folder_dl.gif Разножанровые коллекции книг и библиотеки Книжная серия | Любовь и Магия [21 книга.] (2015-2017) [FB2] XP1971
1 | 0

0 | 6422

15

2017-06-21 22:04
XP1971 Последнее
Показать сообщения:    
Ответить на тему

Текущее время: Сегодня 18:39

Часовой пояс: GMT + 3



Вы не можете начинать темы
Вы не можете отвечать на сообщения
Вы не можете редактировать свои сообщения
Вы не можете удалять свои сообщения
Вы не можете голосовать в опросах
Вы не можете прикреплять файлы к сообщениям
Вы не можете скачивать файлы