Сегодня идет свободное скачивание без начисления Download

Создавая убийцу / Making a Murderer / Сезон: 1 / Серии: 1 из 10 (Мойра Демос, Лаура Риккьярди) [2015, документальная, криминальная драмма, HDTVRip] MVO (RATTLEBOX studio)

Ответить на тему
 
Автор
Сообщение

Omen ®

Стаж: 5 лет 7 месяцев

Сообщений: 185412

Торрент-статистика

Пост 19-Мар-2016 03:33

[Цитировать]

Создавая убийцу / Making a Murderer
Год выпуска: 2015
Страна: США
Жанр: документальная, криминальная драмма
Продолжительность: 64 минут
Перевод: Любительский (многоголосый закадровый) RATTLEBOX studio
Режиссёр: Мойра Демос, Лаура Риккьярди
В ролях: Стивен Эйвери, Лаура Ниридер, Даниэль Риччарди, Лаура Риччарди
Описание: Фильм посвящен делу Стивена Эйвери, осужденного в 1985 году за изнасилование, которого он не совершал. В 2003-м Эйвери выпустили по результатам новой экспертизы ДНК, он стал едва ли не национальным героем. А потом его обвинили в убийстве и вновь отправили за решетку, на этот раз — пожизненно.
Сэмпл: https://yadi.sk/i/C6NSNalkqJmgD
Качество: HDTVRip
Формат: MKV
Видео: AVC/H.264, 1280х720, AVC/H.264, fps 29,970, 3408kbps
Аудио: PCM, 48.0 kHz, 2 ch, 16 bit
Субтитры: переведены все надписи

Список серий

1ая серия

MediaInfo

General
Complete name : /Volumes/WORK/RATTLEBOX studio/Создавая_убийц_Making_a_Murderer-1х01_(rattlebox).mp4
Format : MPEG-4
Format profile : Base Media
Codec ID : isom (isom/iso2/avc1/mp41)
File size : 846 MiB
Duration : 1h 4mn
Overall bit rate mode : Variable
Overall bit rate : 1 836 Kbps
Movie name : Создавая_убийц_Making_a_Murderer-1х01_(rattlebox)
ContentType : Short Film
Encoded date : UTC 1904-01-01 00:00:00
Tagged date : UTC 2016-03-18 22:20:29
Writing application : Lavf56.25.101
Video
ID : 1
Format : AVC
Format/Info : Advanced Video Codec
Format profile : High@L3.1
Format settings, CABAC : Yes
Format settings, ReFrames : 4 frames
Codec ID : avc1
Codec ID/Info : Advanced Video Coding
Duration : 1h 4mn
Bit rate : 1 702 Kbps
Width : 1 280 pixels
Height : 720 pixels
Display aspect ratio : 16:9
Frame rate mode : Constant
Frame rate : 29.970 (30000/1001) fps
Color space : YUV
Chroma subsampling : 4:2:0
Bit depth : 8 bits
Scan type : Progressive
Bits/(Pixel*Frame) : 0.062
Stream size : 782 MiB (93%)
Writing library : x264 core 142 r2453 ea0ca51
Encoding settings : cabac=1 / ref=3 / deblock=1:0:0 / analyse=0x3:0x113 / me=hex / subme=7 / psy=1 / psy_rd=1.00:0.00 / mixed_ref=1 / me_range=16 / chroma_me=1 / trellis=1 / 8x8dct=1 / cqm=0 / deadzone=21,11 / fast_pskip=1 / chroma_qp_offset=-2 / threads=12 / lookahead_threads=2 / sliced_threads=0 / nr=0 / decimate=1 / interlaced=0 / bluray_compat=0 / constrained_intra=0 / bframes=3 / b_pyramid=2 / b_adapt=1 / b_bias=0 / direct=1 / weightb=1 / open_gop=0 / weightp=2 / keyint=250 / keyint_min=25 / scenecut=40 / intra_refresh=0 / rc_lookahead=40 / rc=crf / mbtree=1 / crf=20.0 / qcomp=0.60 / qpmin=0 / qpmax=69 / qpstep=4 / ip_ratio=1.40 / aq=1:1.00
Encoded date : UTC 1904-01-01 00:00:00
Tagged date : UTC 1904-01-01 00:00:00
Audio
ID : 2
Format : AAC
Format/Info : Advanced Audio Codec
Format profile : LC
Codec ID : 40
Duration : 1h 4mn
Bit rate mode : Variable
Bit rate : 128 Kbps
Maximum bit rate : 155 Kbps
Channel(s) : 2 channels
Channel positions : Front: L R
Sampling rate : 44.1 KHz
Frame rate : 43.066 fps (1024 spf)
Compression mode : Lossy
Stream size : 59.2 MiB (7%)
Title : rattlebox studio sound
Language : Russian
Default : Yes
Alternate group : 1
Encoded date : UTC 1904-01-01 00:00:00
Tagged date : UTC 1904-01-01 00:00:00

Скриншоты

Вне форума [Профиль] [ЛС]
Похожие темы
Форум Тема Автор Торрент Отв. Посл. сообщение
./templates/default/images/folder_dl.gif Обучающее видео Cornacchia | Создание украшения от Cornacchia (2015) PCRec [H.264/720p] moralis
1 | 0

0 | 139

7

2016-03-20 21:19
moralis Последнее
./templates/default/images/folder_dl.gif Обучающее видео Cornacchia | Как создавался фотоарт "Сесиль до Воланж" (2015) PCRec moralis
0 | 1

0 | 509

11

2016-03-20 21:32
moralis Последнее
./templates/default/images/folder_dl.gif Обучающее видео Василий Кашеваров | Создание музыки и фонограмм на базе компьютера (+Бонусы!) (2012) PCRec moralis
0 | 1

0 | 382

5

2016-04-05 20:46
moralis Последнее
./templates/default/images/folder_dl.gif Мультимедийные приложения Дмитрий Лапин | 2D технология проектирования и создания чертежей любых видов в AutoCAD 2013 [диск №1] (2012) [unpacked] }{@R0N
1 | 0

0 | 18

11

2017-12-05 22:25
}{@R0N Последнее
Показать сообщения:    
Ответить на тему

Текущее время: Сегодня 13:18

Часовой пояс: GMT + 3



Вы не можете начинать темы
Вы не можете отвечать на сообщения
Вы не можете редактировать свои сообщения
Вы не можете удалять свои сообщения
Вы не можете голосовать в опросах
Вы не можете прикреплять файлы к сообщениям
Вы не можете скачивать файлы