Сегодня идет свободное скачивание без начисления Download

База Куантико / Quantico / Сезон: 1 / Серии: 1-13 из 19 (Марк Манден) [2015, Драма, WEB-DLRip] MVO (NewStudio) + Original + Subs (Rus)

Ответить на тему
 
Автор
Сообщение

Omen ®

Стаж: 5 лет 7 месяцев

Сообщений: 185412

Торрент-статистика

Пост 19-Мар-2016 00:00

[Цитировать]

Куантико | Quantico- Год выпуска: 2015
Страна: США
Жанр: Драма
Продолжительность: 00:45:00
Перевод: Профессиональный (многоголосый закадровый) NewStudio--Режиссёр: Марк Манден
В ролях: Приянка Чопра, Онжаню Эллис, Джейк МакЛафлин, Ясмин Эл Массри, Джоанна Э. Брэдди, Тейт Эллингтон, Грэхэм Роджерс, Анабель Акоста, Анна Хайа, Диллон Мэтьюз и др.-Описание: Шесть совершенно разных новобранцев поступают на стажировку в ФБР на базу Куантико в штате Вирджиния. Базой руководит Миранда Шоу, первая женщина на высшей должности в ФБР. Миранда объединяется со своим бывшим партнером, Лиамом О`Коннором, который ныне работает советником, чтобы отобрать лучших новобранцев в агенты. Тем не менее в будущем один из новобранцев будет подозреваемым в планировании крупнейшего с 11 сентября террористического акта по Нью-Йорку.-Релиз от
Рип: >^Мурлыська^-Сэмпл -Качество: WEB-DLRip
Формат: AVI
Видео: XVID, 720x400 (16:9), 23.976 fps, ~2001 kbps avg, 0.29 bit/pixel
Аудио Rus: AC3 Dolby Digital, 48.0 KHz, 6 channels, ~384 kbps
Аудио Eng: AC3 Dolby Digital, 48.0 KHz, 6 channels, ~384 kbps
Субтитры: Rus-

MediaInfo

General
Complete name : E:\Куантико (Сезон 1) NewStudio\Quantico.s01e01.WEBDL.400p.CasStudio.avi
Format : AVI
Format/Info : Audio Video Interleave
File size : 856 MiB
Duration : 43mn 0s
Overall bit rate : 2 783 Kbps
Writing application : VirtualDubModRus 1.5.10.2 (build 2542/release)
Writing library : VirtualDubMod build 2542/release
Video
ID : 0
Format : MPEG-4 Visual
Format profile : Advanced Simple@L5
Format settings, BVOP : 1
Format settings, QPel : No
Format settings, GMC : No warppoints
Format settings, Matrix : Default (MPEG)
Codec ID : XVID
Codec ID/Hint : XviD
Duration : 43mn 0s
Bit rate : 2 001 Kbps
Width : 720 pixels
Height : 400 pixels
Display aspect ratio : 16:9
Frame rate : 23.976 fps
Color space : YUV
Chroma subsampling : 4:2:0
Bit depth : 8 bits
Scan type : Progressive
Compression mode : Lossy
Bits/(Pixel*Frame) : 0.290
Stream size : 616 MiB (72%)
Writing library : XviD 1.2.1 (UTC 2008-12-04)
Audio #1
ID : 1
Format : AC-3
Format/Info : Audio Coding 3
Mode extension : CM (complete main)
Format settings, Endianness : Big
Codec ID : 2000
Duration : 43mn 0s
Bit rate mode : Constant
Bit rate : 384 Kbps
Channel count : 6 channels
Channel positions : Front: L C R, Side: L R, LFE
Sampling rate : 48.0 KHz
Bit depth : 16 bits
Compression mode : Lossy
Stream size : 118 MiB (14%)
Alignment : Split accross interleaves
Interleave, duration : 42 ms (1.00 video frame)
Interleave, preload duration : 500 ms
Audio #2
ID : 2
Format : AC-3
Format/Info : Audio Coding 3
Mode extension : CM (complete main)
Format settings, Endianness : Big
Codec ID : 2000
Duration : 43mn 0s
Bit rate mode : Constant
Bit rate : 384 Kbps
Channel count : 6 channels
Channel positions : Front: L C R, Side: L R, LFE
Sampling rate : 48.0 KHz
Bit depth : 16 bits
Compression mode : Lossy
Stream size : 118 MiB (14%)
Alignment : Split accross interleaves
Interleave, duration : 42 ms (1.00 video frame)
Interleave, preload duration : 500 ms
-

Скриншоты

         
Вне форума [Профиль] [ЛС]
Показать сообщения:    
Ответить на тему

Текущее время: Сегодня 19:41

Часовой пояс: GMT + 3



Вы не можете начинать темы
Вы не можете отвечать на сообщения
Вы не можете редактировать свои сообщения
Вы не можете удалять свои сообщения
Вы не можете голосовать в опросах
Вы не можете прикреплять файлы к сообщениям
Вы не можете скачивать файлы