Сегодня идет свободное скачивание без начисления Download

Детектив Вульф / Вульф / Wolf / Сезон: 1 / Серии: 10 из 11 (Билл Коркоран, Род Холкомб, Майкл Рэй Родс) [1990, Драма, VHSRip] AVO (Володарский)

Ответить на тему
 
Автор
Сообщение

Omen ®

Стаж: 5 лет 9 месяцев

Сообщений: 184402

Торрент-статистика

Пост 16-Мар-2016 18:33

[Цитировать]

Детектив Вульф / Вульф / Wolf
Год выпуска: 1990
Страна: США
Жанр: Драма
Продолжительность: 00:45:00
Перевод: Авторский (одноголосый закадровый) Володарский
Режиссёр: Билл Коркоран, Род Холкомб, Майкл Рэй Родс
В ролях: Джек Скалия, Джозеф Сирола, Джудит Хоаг, Мими Кузык, Дж.С. Брэнди, Стив С. Портер, Николас Сурови, Ронни Ди Блэйр, Робин Бак, Майкл Кавана
Описание: Полицейский Тони Вульф, после неудачной операции, в которой был подставлен своими коллегами,был уволен. Через некоторое время устраивается в детективное агенство и пытается доказать свою невиновность...
Доп. информация: Спасибо за исходный материал Evil ED 86, а также pmv за чистку звука от шумов.
Сэмпл: https://yadi.sk/i/uvfIkFKBqEoH2
Качество: VHSRip
Формат: AVI
Видео: 688x512 (1.34:1), 25 fps, XviD build 73 ~1647 kbps avg, 0.19 bit/pixel
Аудио: 48 kHz, AC3 Dolby Digital, 2/0 (L,R) ch, ~192.00 kbps avg
Субтитры: хардсаб, язык не опознан

Список серий

10. Betrayal

MediaInfo

General
Complete name : D:\Вульф\s01.avi
Format : AVI
Format/Info : Audio Video Interleave
File size : 605 MiB
Duration : 45mn 45s
Overall bit rate : 1 850 Kbps
Writing application : VirtualDubMod 1.5.10.2 (build 2540/release)
Writing library : VirtualDubMod build 2540/release
Video
ID : 0
Format : MPEG-4 Visual
Format profile : Advanced Simple@L5
Format settings, BVOP : 2
Format settings, QPel : No
Format settings, GMC : No warppoints
Format settings, Matrix : Default (MPEG)
Codec ID : XVID
Codec ID/Hint : XviD
Duration : 45mn 45s
Bit rate : 1 648 Kbps
Width : 688 pixels
Height : 512 pixels
Display aspect ratio : 4:3
Frame rate : 25.000 fps
Color space : YUV
Chroma subsampling : 4:2:0
Bit depth : 8 bits
Scan type : Progressive
Compression mode : Lossy
Bits/(Pixel*Frame) : 0.187
Stream size : 539 MiB (89%)
Writing library : XviD 73
Audio
ID : 1
Format : AC-3
Format/Info : Audio Coding 3
Mode extension : CM (complete main)
Format settings, Endianness : Big
Codec ID : 2000
Duration : 45mn 45s
Bit rate mode : Constant
Bit rate : 192 Kbps
Channel(s) : 2 channels
Channel positions : Front: L R
Sampling rate : 48.0 KHz
Compression mode : Lossy
Stream size : 62.8 MiB (10%)
Alignment : Split accross interleaves
Interleave, duration : 40 ms (1.00 video frame)
Interleave, preload duratio : 500 ms

Скриншоты





Вне форума [Профиль] [ЛС]
Похожие темы
Форум Тема Автор Торрент Отв. Посл. сообщение
./templates/default/images/folder_dl.gif Зарубежное кино Красная шапочка / Red Riding Hood (Кэтрин Хардвик / Catherine Hardwicke) [2011, США, Канада, ужасы, фэнтези, триллер, детектив, BDRip 1080p] Dub + Original + Comm + subs Omen
1 | 0

0 | 907

10

2013-05-01 01:36
Omen Последнее
./templates/default/images/folder_dl.gif Приключения и квесты Mahjong Detective: The Stolen Love / Маджонг Детектив. Похищенная Любовь [P] [RUS] (2015) Omen
3 | 0

0 | 1144

20

2015-06-08 21:00
Omen Последнее
./templates/default/images/folder_dl.gif Новинки (HD|DVD|BD|WEB|TV|SAT|PDTV|-Rip) Аннигиляция / Annihilation (Алекс Гарленд) [2018 г., ужасы, фантастика, фэнтези, триллер, драма, детектив, приключения, WEBRip-AVC] L | HDRezka studio Theseus
1 | 0

0 | 420

15

2018-03-14 22:43
Theseus Последнее
Показать сообщения:    
Ответить на тему

Текущее время: Сегодня 08:01

Часовой пояс: GMT + 3



Вы не можете начинать темы
Вы не можете отвечать на сообщения
Вы не можете редактировать свои сообщения
Вы не можете удалять свои сообщения
Вы не можете голосовать в опросах
Вы не можете прикреплять файлы к сообщениям
Вы не можете скачивать файлы