Сегодня идет свободное скачивание без начисления Download

Хинтерланд / Hinterland / Сезон: 2 / Серии: 1-2 из 4 (Ed Thomas) [2015, детектив, драма, HDTVRip] DVO (Levelin)

Ответить на тему
 
Автор
Сообщение

Omen ®

Стаж: 5 лет 6 месяцев

Сообщений: 186946

Торрент-статистика

Пост 15-Мар-2016 00:00

[Цитировать]

--Хинтерланд / Hinterland-- Год выпуска: 2015
Страна: Великобритания
Жанр: детектив, драма
Продолжительность: ~90min
Перевод: Профессиональный двухголосый закадровый [Levelin]-Режиссёр: Ed Thomas
В ролях: Ричард Харрингтон, Мали Харрис, Ханна Даниэль, Алекс Харрис, Анейрин Хьюз-Описание: Инспектор Том Матиас расследует запутанные преступления в глуши Уэльса. Действие начинается после событий, в результате которых главный герой пережил сильный личностный кризис. Однако, он вынужден вернуться на работу и принять участие в очередном расследовании.-Роли озвучивали:
- Ариса Лебедева
- Семён Ващенко-
-
- -Качество: HDTV 720
Формат: MKV
Видео: MPEG4 AVC, 1280x720, 16:9, 25.000 fps, 3 500 Kbps
Аудио: AC-3, 48.0 KHz, 192 Kbps, 2 channels [Levelin]
Субтитры: отсутствуют

MediaInfo

Format : Matroska
Format version : Version 4 / Version 2
File size : 1.55 GiB
Duration : 1h 29mn
Overall bit rate mode : Variable
Overall bit rate : 2 492 Kbps
Encoded date : UTC 2016-02-12 15:54:11
Writing application : mkvmerge v8.3.0 ('Over the Horizon') 64bit
Writing library : libebml v1.3.1 + libmatroska v1.4.2
DURATION : 01:29:08.320000000
NUMBER_OF_FRAMES : 167135
NUMBER_OF_BYTES : 128359680
_STATISTICS_WRITING_APP : mkvmerge v8.3.0 ('Over the Horizon') 64bit
_STATISTICS_WRITING_DATE_UT : 2016-02-12 15:54:11
_STATISTICS_TAGS : BPS DURATION NUMBER_OF_FRAMES NUMBER_OF_BYTES
Video
ID : 1
Format : AVC
Format/Info : Advanced Video Codec
Format profile : High@L4.1
Format settings, CABAC : Yes
Format settings, ReFrames : 2 frames
Codec ID : V_MPEG4/ISO/AVC
Duration : 1h 29mn
Bit rate mode : Variable
Bit rate : 2 251 Kbps
Maximum bit rate : 3 500 Kbps
Width : 1 280 pixels
Height : 720 pixels
Display aspect ratio : 16:9
Frame rate mode : Constant
Frame rate : 25.000 fps
Color space : YUV
Chroma subsampling : 4:2:0
Bit depth : 8 bits
Scan type : Progressive
Bits/(Pixel*Frame) : 0.098
Stream size : 1.40 GiB (90%)
Default : Yes
Forced : No
Audio
ID : 2
Format : AC-3
Format/Info : Audio Coding 3
Mode extension : CM (complete main)
Format settings, Endianness : Big
Codec ID : A_AC3
Duration : 1h 29mn
Bit rate mode : Constant
Bit rate : 192 Kbps
Channel(s) : 2 channels
Channel positions : Front: L R
Sampling rate : 48.0 KHz
Compression mode : Lossy
Delay relative to video : -40ms
Stream size : 122 MiB (8%)
Title : Levelin
Language : Russian
Default : Yes
Forced : Yes

Скриншоты

Внимание! Раздача ведется путем добавления новых серий!

Внимание! Раздача ведётся путём добавления новых серий; при каждом добавлении создётся новый торрент. Чтобы начать докачку новой серии, пользователям необходимо сделать следующее:
(1) остановить скачивание,
(2) удалить старый торрент у себя из клиента (старые серии удалять не надо),
(3) скачать новый торрент и запустить его у себя в клиенте вместо старого, при этом указать клиенту путь в старую папку куда и должно происходить скачивание новых серий.
Ваш клиент при этом должен произвести хеширование (проверку) старой папки (если не производит сам - помогите ему сделать это), и будет докачивать только те серии которых у вас ещё нет. Старые серии при этом не удаляются, а продолжают раздаваться!
Eсли вы уже удалили старые серии, то предотвратить повторную закачку старых серий можно, отжав галочку в соответсвующих местах при запуске нового торрента
Вне форума [Профиль] [ЛС]
Показать сообщения:    
Ответить на тему

Текущее время: Сегодня 18:35

Часовой пояс: GMT + 3



Вы не можете начинать темы
Вы не можете отвечать на сообщения
Вы не можете редактировать свои сообщения
Вы не можете удалять свои сообщения
Вы не можете голосовать в опросах
Вы не можете прикреплять файлы к сообщениям
Вы не можете скачивать файлы