Сегодня идет свободное скачивание без начисления Download

Бывает и хуже / The Middle / Сезон: 7 / Серии: 1 из 24 (Джули Энн Робинсон) [2015, Комедия, WEB-DLRip] Dub (Paramount Comedy) + Original

Ответить на тему
 
Автор
Сообщение

Omen ®

Стаж: 5 лет 10 месяцев

Сообщений: 184329

Торрент-статистика

Пост 14-Мар-2016 09:00

[Цитировать]

Бывает и хуже / The Middle
Год выпуска: 2015
Страна: США
Жанр: Комедия
Продолжительность: ~00:21:00
Перевод: Профессиональный (дублированный) Paramount Comedy
Режиссёр: Джули Энн Робинсон
В ролях: Патриция Хитон, Нил Флинн, Чарли МакДермотт, Иден Шер, Аттикус Шаффер, Крис Кэттэн, Бо Уирик, Джон Гаммон, Брок Чьярлелли, Джен Рэй
Описание: Семья среднего достатка, Хэки, живет в самом сердце Индианы и старается изо всех сил держаться на плаву в пучине сумасшедших будней. Этот сериал о несбыточных ожиданиях и безумных идеях, о повседневных неудачах и крохотных радостях жены и матери троих необычных детишек…
Доп. информация:
Звук предоставил: TaLi4
Что-то там с аудио делал: *барабанная дробь* халтурщик TaLi4
Подготовка видео: TaLi4
Ссылка на предыдущие и альтернативные раздачи: [url=tracker.php?f=189,2366&nm=The+Middle+-malcolm]http:///*spam*//forum/tracker.php?f=189,2366&nm=The+Middle+-malcolm[/url]
Сэмпл: http://multi-up.com/1093053
Качество: WEB-DLRip
Формат: AVI
Видео: 720x400 (1.80:1), 25 fps, XviD build 64 ~1320 kbps avg, 0.18 bit/pixel
Аудио #1: MP3, 48 kHz, 2 ch, ~128.00 kbps avg | Paramount Comedy |
Аудио #2: MP3, 48 kHz, 2 ch, ~128.00 kbps avg | Оригинал |
Субтитры: отсутствуют

MediaInfo

General
Complete name : C:\Users\Администратор\Desktop\Раздачи\The Middle Season 7 Paramount Comedy\the.middle.s07e01.web-dlrip.rus.eng.paramount.comedy.avi
Format : AVI
Format/Info : Audio Video Interleave
File size : 235 MiB
Duration : 20mn 38s
Overall bit rate : 1 590 Kbps
Writing application : VirtualDubMod 1.5.10.3 | www.virtualdub-fr.org || (build 2550/release)
Writing library : VirtualDubMod build 2550/release
Video
ID : 0
Format : MPEG-4 Visual
Format profile : Advanced Simple@L5
Format settings, BVOP : 2
Format settings, QPel : No
Format settings, GMC : No warppoints
Format settings, Matrix : Default (H.263)
Codec ID : XVID
Codec ID/Hint : XviD
Duration : 20mn 38s
Bit rate : 1 320 Kbps
Width : 720 pixels
Height : 400 pixels
Display aspect ratio : 16:9
Frame rate : 25.000 fps
Color space : YUV
Chroma subsampling : 4:2:0
Bit depth : 8 bits
Scan type : Progressive
Compression mode : Lossy
Bits/(Pixel*Frame) : 0.183
Stream size : 195 MiB (83%)
Writing library : XviD 64
Audio #1
ID : 1
Format : MPEG Audio
Format version : Version 1
Format profile : Layer 3
Mode : Joint stereo
Mode extension : MS Stereo
Codec ID : 55
Codec ID/Hint : MP3
Duration : 20mn 38s
Bit rate mode : Constant
Bit rate : 128 Kbps
Channel(s) : 2 channels
Sampling rate : 48.0 KHz
Compression mode : Lossy
Stream size : 18.9 MiB (8%)
Alignment : Aligned on interleaves
Interleave, duration : 40 ms (1.00 video frame)
Interleave, preload duratio : 504 ms
Audio #2
ID : 2
Format : MPEG Audio
Format version : Version 1
Format profile : Layer 3
Mode : Joint stereo
Mode extension : MS Stereo
Codec ID : 55
Codec ID/Hint : MP3
Duration : 20mn 38s
Bit rate mode : Constant
Bit rate : 128 Kbps
Channel(s) : 2 channels
Sampling rate : 48.0 KHz
Compression mode : Lossy
Stream size : 18.9 MiB (8%)
Alignment : Aligned on interleaves
Interleave, duration : 40 ms (1.00 video frame)
Interleave, preload duratio : 504 ms
Writing library : LAME3.99r
Encoding settings : -m j -V 4 -q 0 -lowpass 17 -b 128

Скриншоты

Внимание! Раздача ведётся путём добавления новых серий

Внимание! Раздача ведётся путём добавления новых серий; при каждом добавлении создётся новый торрент. Чтобы начать докачку новой серии, пользователям необходимо сделать следующее:
(1) остановить скачивание,
(2) удалить старый торрент у себя из клиента (старые серии удалять не надо),
(3) скачать новый торрент и запустить его у себя в клиенте вместо старого, при этом указать клиенту путь в старую папку куда и должно происходить скачивание новых серий.
Ваш клиент при этом должен произвести хеширование (проверку) старой папки (если не производит сам - помогите ему сделать это), и будет докачивать только те серии которых у вас ещё нет. Старые серии при этом не удаляются, а продолжают раздаваться!
Eсли вы уже удалили старые серии, то предотвратить повторную закачку старых серий можно, отжав галочку в соответсвующих местах при запуске нового торрента. По возможности, желательно не удалять старые серии как можно дольше чтобы релизёр не столько продолжал раздавать старые серии, а смог сконцентрироваться на новых.
Вне форума [Профиль] [ЛС]
Показать сообщения:    
Ответить на тему

Текущее время: Сегодня 03:25

Часовой пояс: GMT + 3



Вы не можете начинать темы
Вы не можете отвечать на сообщения
Вы не можете редактировать свои сообщения
Вы не можете удалять свои сообщения
Вы не можете голосовать в опросах
Вы не можете прикреплять файлы к сообщениям
Вы не можете скачивать файлы