Сегодня идет свободное скачивание без начисления Download

Доктор Эмили Оуэнс / Emily Owens M.D. / Сезон: 1 / Серии: 1-13 из 13 (Бхарат Наллури) [2012, драма, WEB-DLRip] MVO (Пятница) + Original

Ответить на тему
 
Автор
Сообщение

Omen ®

Стаж: 6 лет 1 месяц

Сообщений: 184308

Торрент-статистика

Пост 14-Мар-2016 00:00

[Цитировать]

Доктор Эмили Оуэнс / Emily Owens M.D.
Год выпуска: 2012
Страна: США
Жанр: драма
Продолжительность: 00:43:00
Перевод: Профессиональный (многоголосый закадровый) Пятница
Режиссёр: Бхарат Наллури
В ролях: Мэми Гаммер, Джастин Хартли, Майкл Рэди, Некар Задеган, Келли МакКрири, Мишель Харрисон, Джулия Стоун и др.
Описание: Наконец-то Эмили Оуэнс чувствует, что повзрослела! Можно забыть про школьные деньки; медицинская школа окончена, и теперь она интерн в больнице Денвера, где она сможет работать с знаменитым кардиологом доктором Джиной Бендари, а также с ее университетской любовью Уиллом Коллинзом, который тоже получил там интернатуру. Так почему же все повторяют, что интернатура — это та же школа? Эмили быстро узнает, почему. Красотка Кассандра Копельсон, главный враг Эмили в старших классах школы, тоже объявляется в больнице, и теперь они снова соперничают. Причем конкуренция у них не только за операции, но и за внимание Уилла. Еще один интерн, Тайра Дюпри, сообщает Эмили, что в больнице остались те же группировки, что и в школе. Спортсмены подались в ортопедию; злые девчонки — в пластику. Эмили же снова стала новенькой. Вот только теперь школьные переживания приходится совмещать с высокими ставками профессии доктора.
Доп. информация: Во многих сериях пересказ содержания предыдущих серий на телеканале вырезан - здесь вставлена озвучка от To4ka
Ссылка на предыдущие и альтернативные раздачи: [url=tracker.php?f%5B%5D=189&f%5B%5D=2366&nm=Emily+Owens+M.D]http:///*spam*//forum/tracker.php?f%5B%5D=189&...Owens+M.D[/url].
Сэмпл: http://multi-up.com/1093035
Качество: WEB-DLRip
Формат: AVI
Видео: MPEG4, DivX 5, 720x400 (16:9), 23.976 fps, 1 411 Kbps (0.204 bit/pixel)
Аудио: AC-3, 48.0 KHz, 2 ch, 192 Kbps, CBR - русский
Аудио 2: AC-3, 48.0 KHz, 2 ch, 192 Kbps, CBR - английский
Субтитры: нет

MediaInfo

Общее
Полное имя : N:\1x01 - Pilot (Пилот).avi
Формат : AVI
Формат/Информация : Audio Video Interleave
Размер файла : 552 Мбайт
Продолжительность : 42 м.
Общий поток : 1810 Кбит/сек
Название фильма : Доктор Эмили Оуэнс. Сезон 1 / Emily Owens M.D. Season 1 (2012)
Программа кодирования : VirtualDubMod 1.5.10.2 (build 2540/release)
Библиотека кодирования : VirtualDubMod build 2540/release
Авторское право : miha2154
Видео
Идентификатор : 0
Формат : MPEG-4 Visual
Профиль формата : Advanced Simple@L5
Параметр BVOP формата : 1
Параметр QPel формата : Нет
Параметр GMC формата : Без точки перехода
Параметр матрицы формата : Выборочная
Идентификатор кодека : DX50
Идентификатор кодека/Подсказка : DivX 5
Продолжительность : 42 м.
Битрейт : 1411 Кбит/сек
Ширина : 720 пикселей
Высота : 400 пикселей
Соотношение сторон : 16:9
Частота кадров : 23,976 (24000/1001) кадра/сек
Цветовое пространство : YUV
Субдискретизация насыщенности : 4:2:0
Битовая глубина : 8 бит
Тип развёртки : Прогрессивная
Метод сжатия : С потерями
Бит/(Пиксели*Кадры) : 0.204
Размер потока : 431 Мбайт (78%)
Библиотека кодирования : XviD 65
Аудио #1
Идентификатор : 1
Формат : AC-3
Формат/Информация : Audio Coding 3
Расширение режима : CM (complete main)
Параметр Endianness формата : Big
Идентификатор кодека : 2000
Продолжительность : 42 м.
Вид битрейта : Постоянный
Битрейт : 192 Кбит/сек
Каналы : 2 канала
Расположение каналов : Front: L R
Частота : 48,0 КГц
Частота кадров : 31,250 кадров/сек (1536 spf)
Метод сжатия : С потерями
Размер потока : 58,6 Мбайт (11%)
Выравнивание : Разделение по промежуткам
Продолжительность промежутка : 42 мс. (1,00 видеокадр)
Время предзагрузки промежутка : 500 мс.
Заголовок : Профессиональный (многоголосый закадровый) Пятница
Аудио #2
Идентификатор : 2
Формат : AC-3
Формат/Информация : Audio Coding 3
Расширение режима : CM (complete main)
Параметр Endianness формата : Big
Идентификатор кодека : 2000
Продолжительность : 42 м.
Вид битрейта : Постоянный
Битрейт : 192 Кбит/сек
Каналы : 2 канала
Расположение каналов : Front: L R
Частота : 48,0 КГц
Частота кадров : 31,250 кадров/сек (1536 spf)
Метод сжатия : С потерями
Размер потока : 58,6 Мбайт (11%)
Выравнивание : Разделение по промежуткам
Продолжительность промежутка : 42 мс. (1,00 видеокадр)
Время предзагрузки промежутка : 500 мс.
Заголовок : Английский

Скриншоты


Вне форума [Профиль] [ЛС]
Похожие темы
Форум Тема Автор Торрент Отв. Посл. сообщение
./templates/default/images/folder_dl.gif Резервное копирование и восстановление данных ФотоДОКТОР 3.0 RePack by KaktusTV [Ru] XP1971
1 | 0

0 | 2181

5

2016-12-15 16:38
XP1971 Последнее
./templates/default/images/folder_dl.gif Новинки (HD|DVD|BD|WEB|TV|SAT|PDTV|-Rip) Доктор Стрэндж / Doctor Strange (Скотт Дерриксон) [2016, Фантастика, Фэнтези, Боевик, Приключения, DVDScr] VO Theseus
1 | 0

0 | 6167

39

2017-02-01 00:23
Theseus Последнее
./templates/default/images/folder_dl.gif Медицина и Здоровье Александр Мясников | Энциклопедия доктора Мясникова о самом главном [3 тома] (2015-2017) [FB2] }{@R0N
1 | 0

0 | 7717

27

2017-11-20 21:19
}{@R0N Последнее
Показать сообщения:    
Ответить на тему

Текущее время: Сегодня 20:13

Часовой пояс: GMT + 3



Вы не можете начинать темы
Вы не можете отвечать на сообщения
Вы не можете редактировать свои сообщения
Вы не можете удалять свои сообщения
Вы не можете голосовать в опросах
Вы не можете прикреплять файлы к сообщениям
Вы не можете скачивать файлы