Сегодня идет свободное скачивание без начисления Download

Каникулы Любви / Les Vacances de l\'amour / Сезон: 5 / Серии: 1-6 из 18 (Патрик Ле Гуен-Тено) [2003-2004, Мелодрама, SATRip]

Ответить на тему
 
Автор
Сообщение

Omen ®

Стаж: 5 лет 10 месяцев

Сообщений: 184329

Торрент-статистика

Пост 13-Мар-2016 21:00

[Цитировать]

Каникулы Любви / Les Vacances de l'amour- -Год выпуска: 2003
Страна: Франция
Жанр: Мелодрама
Продолжительность: ~00:45:00-Перевод: Профессиональный (многоголосый закадровый)-Режиссёр: Патрик Ле Гуен-Тено-В ролях: Элен Ролле, Патрик Пюидеба, Лор Гибер, Филипп Вассёр, Лали Меньян, Том Шахт, Рошель Редфилд-Описание: "Каникулы Любви" — молодёжный телесериал, являющийся третьей частью тетралогии "Элен и ребята". Выиграв билет в лотерею, пять старых добрых друзей попадают на остров, где им суждено провести каникулы. Ребят больше не интересует музыка, девочкам больше не хочется просиживать дни напролет в кафе и спортзалах. Они повзрослели. Вскоре, красота французской ривьеры и безудержное желание отдохнуть от суеты Парижа заставляет друзей обосноваться там и заняться бизнесом. Но не все так просто. У острова свои правила. Жизнь там полна приключений. Криминальные разборки, безудержная страсть, измены и предательства ждут друзей в чистых водах ЛавАйленда.-Ссылка на предыдущие и альтернативные раздачи: [url=tracker.php?nm=%D0%BA%D0%B0%D0%BD%D0%B8%D0%BA%D1%83%D0%BB%D1%8B%20%D0%BB%]http:///*spam*//forum/tracker.php?nm=%D0%BA%D0...%20%D0%BB%[/url]- -Качество: SATRip
Формат: AVI
Видео: Xvid MPEG-4, 704x432 (16:10) 25.000 fps, ~1843 kbps avg, 0.242 bit/pixel
Аудио 1: 48 kHz, MP3, 2 ch, ~160 kbps avg (RUS)
Аудио 2: 48 kHz, MP3, 2 ch, ~128 kbps avg (FRA)
Субтитры: Отсутствуют-

Список серий

143. Новая жизнь (Часть первая)
144. Новая жизнь (Часть вторая)
145. По наклонной
146. Вне зоны доступа
159. Ужины
160. Продолжение следует

MediaInfo

Complete name : C:\Users\1\Desktop\Каникулы Любви (5 сезон)\143. Новая жизнь Часть первая rus.avi
Format : AVI
Format/Info : Audio Video Interleave
File size : 661 MiB
Duration : 45mn 55s
Overall bit rate : 2 013 Kbps
Movie name : #143 Новая жизнь (часть 1)
Writing application : VirtualDubModRus 1.5.10.2 (build 2542/release)
Writing library : VirtualDubMod build 2542/release
Video
ID : 0
Format : MPEG-4 Visual
Format profile : Advanced Simple@L5
Format settings, BVOP : 1
Format settings, QPel : No
Format settings, GMC : No warppoints
Format settings, Matrix : Default (MPEG)
Codec ID : XVID
Codec ID/Hint : XviD
Duration : 45mn 55s
Bit rate : 1 843 Kbps
Width : 704 pixels
Height : 432 pixels
Display aspect ratio : 16:10
Frame rate : 25.000 fps
Color space : YUV
Chroma subsampling : 4:2:0
Bit depth : 8 bits
Scan type : Progressive
Compression mode : Lossy
Bits/(Pixel*Frame) : 0.242
Stream size : 605 MiB (92%)
Writing library : XviD 1.2.1 (UTC 2008-12-04)
Audio
ID : 1
Format : MPEG Audio
Format version : Version 1
Format profile : Layer 3
Codec ID : 55
Codec ID/Hint : MP3
Duration : 45mn 55s
Bit rate mode : Constant
Bit rate : 160 Kbps
Channel(s) : 2 channels
Sampling rate : 48.0 KHz
Compression mode : Lossy
Stream size : 52.6 MiB (8%)
Alignment : Aligned on interleaves
Interleave, duration : 40 ms (1.00 video frame)
Interleave, preload duratio : 504 ms

Скриншоты

Вне форума [Профиль] [ЛС]
Показать сообщения:    
Ответить на тему

Текущее время: Сегодня 11:05

Часовой пояс: GMT + 3



Вы не можете начинать темы
Вы не можете отвечать на сообщения
Вы не можете редактировать свои сообщения
Вы не можете удалять свои сообщения
Вы не можете голосовать в опросах
Вы не можете прикреплять файлы к сообщениям
Вы не можете скачивать файлы