Сегодня идет свободное скачивание без начисления Download

Агенты Щ.И.Т. / Agents of S.H.I.E.L.D. / Сезон: 3 / Серии: 1-11 из 22 (Джесси Бокко, Милан Чейлов, Роксанн Доусон) [2015, фантастика, боевик, WEB-DL 720p] MVO (LostFilm)+ Original + Eng Subs

Ответить на тему
 
Автор
Сообщение

Omen ®

Стаж: 6 лет 1 месяц

Сообщений: 184308

Торрент-статистика

Пост 11-Мар-2016 03:33

[Цитировать]

-Агенты Щ.И.Т. | Agents of S.H.I.E.L.D.-- Год выпуска: 2015
Страна: США
Жанр: фантастика, боевик
Продолжительность: ~ 00:43:00-Перевод: Профессиональный (многоголосый закадровый) | LostFilm-Режиссёр: Джесси Бокко, Милан Чейлов, Роксанн Доусон-В ролях: Кларк Грегг, Минг-На, Бретт Далтон, Хлоя Беннет, Йен де Кестекер, Элизабет Хенстридж, Дж. Аугуст Ричардс, Шеннон Лусио, Рон Гласс, Роберт Дж. Стефенсон, Коби Смолдерс, Аарон Бер, Николь Дж. Батлер, Сара Дюмон, Леонор Варела, Иэн Харт, Дэвид Конрад и др.-Описание: Действия сериала разворачиваются после событий фильма «Мстители». Агент Фил Колсон возвращается в правоохранительную организацию под названием Щ. И. Т., собрав небольшую команду профессионалов, он начинает работу над новыми делами, которые порой бывают очень странными.- --Качество: WEB-DL 720p
Формат: MKV
Видео: x264, ~ 4000 kbps, 1280х718 (16:9), 23,976 fps
Аудио 1: AC3, 48,0 КГц, 2 ch, 384 kbps - Rus
Аудио 2: AC3, 48,0 КГц, 6 ch, 384 kbps - Eng
Субтитры: английские-

Релиз

Перевод и озвучание LostFilm

MediaInfo

Код:
Общее
Уникальный идентификатор                 : 248569227879963682307149451151957029303 (0xBB00B121D8FD7BC09A609A12B5D7F1B7)
Полное имя                               : D:\загрузки\Agents of S.H.I.E.L.D (Season 03) 720p.WEB-DL\Marvels.Agents.of.S.H.I.E.L.D.S03E01.720p.LostFilm.mkv
Формат                                   : Matroska
Версия формата                           : Version 4 / Version 2
Размер файла                             : 1,40 Гбайт
Продолжительность                        : 43 м.
Общий поток                              : 4668 Кбит/сек
Дата кодирования                         : UTC 2015-10-01 22:21:12
Программа кодирования                    : mkvmerge v7.3.0 ('Nouages') 32bit built on Oct 22 2014 18:44:01
Библиотека кодирования                   : libebml v1.3.0 + libmatroska v1.4.1
_STATISTICS_WRITING_APP                  : mkvmerge v7.3.0 ('Nouages') 32bit built on Oct 22 2014 18:44:01
_STATISTICS_WRITING_DATE_UTC             : 2015-10-01 22:21:12
_STATISTICS_TAGS                         : BPS DURATION NUMBER_OF_FRAMES NUMBER_OF_BYTES
DURATION                                 : 00:43:03.392000000
NUMBER_OF_FRAMES                         : 80731
NUMBER_OF_BYTES                          : 124002816
Attachment                               : Yes / Yes / Yes / Yes
Видео
Идентификатор                            : 2
Формат                                   : AVC
Формат/Информация                        : Advanced Video Codec
Профиль формата                          : High@L3.1
Параметр CABAC формата                   : Нет
Параметр ReFrames формата                : 2 кадра
Идентификатор кодека                     : V_MPEG4/ISO/AVC
Продолжительность                        : 43 м.
Битрейт                                  : 3807 Кбит/сек
Ширина                                   : 1280 пикселей
Высота                                   : 720 пикселей
Соотношение сторон                       : 16:9
Режим частоты кадров                     : Постоянный
Частота кадров                           : 23,976 кадра/сек
Цветовое пространство                    : YUV
Субдискретизация насыщенности            : 4:2:0
Битовая глубина                          : 8 бит
Тип развёртки                            : Прогрессивная
Бит/(Пиксели*Кадры)                      : 0.172
Размер потока                            : 1,15 Гбайт (82%)
Язык                                     : English
Default                                  : Да
Forced                                   : Нет
Основные цвета                           : BT.709
Характеристики трансфера                 : BT.709
Коэффициенты матрицы                     : BT.709
Аудио #1
Идентификатор                            : 3
Формат                                   : AC-3
Формат/Информация                        : Audio Coding 3
Расширение режима                        : CM (complete main)
Параметр Endianness формата              : Big
Идентификатор кодека                     : A_AC3
Продолжительность                        : 43 м.
Вид битрейта                             : Постоянный
Битрейт                                  : 384 Кбит/сек
Каналы                                   : 2 канала
Расположение каналов                     : Front: L R
Частота                                  : 48,0 КГц
Битовая глубина                          : 16 бит
Метод сжатия                             : С потерями
Размер потока                            : 118 Мбайт (8%)
Язык                                     : Russian
Default                                  : Да
Forced                                   : Нет
Аудио #2
Идентификатор                            : 4
Формат                                   : AC-3
Формат/Информация                        : Audio Coding 3
Расширение режима                        : CM (complete main)
Параметр Endianness формата              : Big
Идентификатор кодека                     : A_AC3
Продолжительность                        : 43 м.
Вид битрейта                             : Постоянный
Битрейт                                  : 384 Кбит/сек
Каналы                                   : 6 каналов
Расположение каналов                     : Front: L C R, Side: L R, LFE
Частота                                  : 48,0 КГц
Битовая глубина                          : 16 бит
Метод сжатия                             : С потерями
Размер потока                            : 118 Мбайт (8%)
Язык                                     : English
Default                                  : Нет
Forced                                   : Нет
Текст
Идентификатор                            : 1
Формат                                   : UTF-8
Идентификатор кодека                     : S_TEXT/UTF8
Идентификатор кодека/Информация          : UTF-8 Plain Text
Заголовок                                : CC
Язык                                     : English
Default                                  : Нет
Forced                                   : Нет

Скриншоты

Раздача ведется путем добавления новых серий

Когда раздача ведётся путём добавления новых серий, при каждом добавлении создётся новый торрент. Чтобы начать докачку новой серии, пользователям необходимо сделать следующее:
(1) остановить скачивание,
(2) удалить старый торрент у себя из клиента (старые серии удалять не надо),
(3) скачать новый торрент и запустить его у себя в клиенте вместо старого, при этом указать клиенту путь в старую папку, куда и должно происходить скачивание новых серий.
Ваш клиент при этом должен произвести хеширование (проверку) старой папки (если не производит сам - помогите ему сделать это), и будет докачивать только те серии, которых у вас ещё нет. Старые серии при этом не удаляются, а продолжают раздаваться!
Eсли вы уже удалили старые серии, то предотвратить повторную закачку старых серий можно, отжав галочку в соответсвующих местах при запуске нового торрента. По возможности, желательно не удалять старые серии как можно дольше, чтобы релизёр не столько продолжал раздавать старые серии, а смог сконцентрироваться на новых.
-
Вне форума [Профиль] [ЛС]
Показать сообщения:    
Ответить на тему

Текущее время: Сегодня 04:44

Часовой пояс: GMT + 3



Вы не можете начинать темы
Вы не можете отвечать на сообщения
Вы не можете редактировать свои сообщения
Вы не можете удалять свои сообщения
Вы не можете голосовать в опросах
Вы не можете прикреплять файлы к сообщениям
Вы не можете скачивать файлы