Сегодня идет свободное скачивание без начисления Download

Матушка Гусыня / Gasmamman / Сезон: 1 / Серии: 1 из 8 (Ричард Холм) [2015, триллер, HDTVRip] DVO (SNK-TV) + Original + Eng Subs + Rus Subs

Ответить на тему
 
Автор
Сообщение

Omen ®

Стаж: 5 лет 11 месяцев

Сообщений: 184329

Торрент-статистика

Пост 10-Мар-2016 21:00

[Цитировать]

Матушка Гусыня / Gåsmamman- Год выпуска: 2015
Страна: Швеция
Жанр: Триллер
Продолжительность: ~45 минут-Перевод: Любительский (двухголосый закадровый) - /SNK-TV/
Субтитры: Русские (Полные) - /SNK-TV/; Английские; Шведские-Режиссёр: Ричард Холм
В ролях: Александра Рапапорт, Магнус Роосманн, Эдвин Рюдинг, Клара Христианссон, Иван Матиас Петерссон, Томми Кёрберг, Грюнет Мольвиг, Мадлен Барвен Тролльвик, Сюзанна Торсон-Описание: Главная героиня — мать троих детей — оказывается связанной с организованной преступностью, и её жизнь разваливается на части.-
Скачать сэмпл--Качество: HDTVRip
Формат: MKV
Видео кодек: Xvid
Аудио кодек: MP3
Видео: Xvid 720x400 25fps 1399kbps 0.194
Аудио Rus: MP3 48000Hz stereo 128kbps
Аудио Swe: MP3 48000Hz stereo 128kbps-

Список серий

01. Episode 1
02. Episode 2
03. Episode 3
04. Episode 4
05. Episode 5
06. Episode 6
07. Episode 7
08. Episode 8

Скриншоты

-

Раздача ведётся путём добавления новых серий

Внимание! Раздача ведётся путём добавления новых серий; при каждом добавлении создаётся новый торрент. Чтобы начать докачку новой серии, пользователям необходимо сделать следующее:
(1) остановить скачивание,
(2) удалить старый торрент у себя из клиента (старые серии удалять не надо),
(3) скачать новый торрент и запустить его у себя в клиенте вместо старого, при этом указать клиенту путь в старую папку куда и должно происходить скачивание новых серий.
Ваш клиент при этом должен произвести хеширование (проверку) старой папки (если не производит сам - помогите ему сделать это), и будет докачивать только те серии которых у вас ещё нет. Старые серии при этом не удаляются, а продолжают раздаваться!
Eсли вы уже удалили старые серии, то предотвратить повторную закачку старых серий можно, отжав галочку в соответствующих местах при запуске нового торрента. По возможности, желательно не удалять старые серии как можно дольше чтобы релизёр не столько продолжал раздавать старые серии, а смог сконцентрироваться на новых.
-

MediaInfo

General
Complete name : W:\Торка на W\Gasmamman\Gasmamman.S1\Gasmamman.s01e01.HDTVRip.SNK-TV.avi
Format : AVI
Format/Info : Audio Video Interleave
File size : 528 MiB
Duration : 44mn 13s
Overall bit rate : 1 670 Kbps
Writing application : VirtualDubModRus 1.5.10.2 (build 2542/release)
Writing library : VirtualDubMod build 2542/release
Video
ID : 0
Format : MPEG-4 Visual
Format profile : Simple@L3
Format settings, BVOP : No
Format settings, QPel : No
Format settings, GMC : No warppoints
Format settings, Matrix : Default (H.263)
Codec ID : XVID
Codec ID/Hint : XviD
Duration : 44mn 13s
Bit rate : 1 400 Kbps
Width : 720 pixels
Height : 400 pixels
Display aspect ratio : 16:9
Frame rate : 25.000 fps
Color space : YUV
Chroma subsampling : 4:2:0
Bit depth : 8 bits
Scan type : Progressive
Compression mode : Lossy
Bits/(Pixel*Frame) : 0.194
Stream size : 443 MiB (84%)
Writing library : XviD 67
Audio #1
ID : 1
Format : MPEG Audio
Format version : Version 1
Format profile : Layer 3
Mode : Joint stereo
Mode extension : MS Stereo
Codec ID : 55
Codec ID/Hint : MP3
Duration : 44mn 13s
Bit rate mode : Constant
Bit rate : 128 Kbps
Channel(s) : 2 channels
Sampling rate : 48.0 KHz
Compression mode : Lossy
Stream size : 40.5 MiB (8%)
Alignment : Aligned on interleaves
Interleave, duration : 40 ms (1.00 video frame)
Interleave, preload duration : 504 ms
Audio #2
ID : 2
Format : MPEG Audio
Format version : Version 1
Format profile : Layer 3
Mode : Joint stereo
Mode extension : MS Stereo
Codec ID : 55
Codec ID/Hint : MP3
Duration : 44mn 13s
Bit rate mode : Constant
Bit rate : 128 Kbps
Channel(s) : 2 channels
Sampling rate : 48.0 KHz
Compression mode : Lossy
Stream size : 40.5 MiB (8%)
Alignment : Aligned on interleaves
Interleave, duration : 40 ms (1.00 video frame)
Interleave, preload duration : 504 ms
-
Вне форума [Профиль] [ЛС]
Показать сообщения:    
Ответить на тему

Текущее время: Сегодня 07:11

Часовой пояс: GMT + 3



Вы не можете начинать темы
Вы не можете отвечать на сообщения
Вы не можете редактировать свои сообщения
Вы не можете удалять свои сообщения
Вы не можете голосовать в опросах
Вы не можете прикреплять файлы к сообщениям
Вы не можете скачивать файлы