Сегодня идет свободное скачивание без начисления Download

Последний человек на Земле / The Last Man on Earth / Сезон: 2 / Серии: 1-11 из 13 (Джон Соломон, Фил Лорд, Кристофер Миллер) [2015, комедия, HDTVRip] VO (LevshaFilm)

Ответить на тему
 
Автор
Сообщение

Omen ®

Стаж: 5 лет 7 месяцев

Сообщений: 185427

Торрент-статистика

Пост 10-Мар-2016 18:00

[Цитировать]

Последний человек на Земле / The Last Man on Earth
Год выпуска: 2015
Страна: США
Жанр: комедия
Продолжительность: ~00:22:00
Перевод: Любительский (одноголосый закадровый) | LevshaFilm
Режиссёр: Джон Соломон, Фил Лорд, Кристофер Миллер
В ролях: Уилл Форте, Кристен Шаал, Дженьюэри Джонс, Мэл Родригез, Клеопатра Коулмэн, Мэри Стинберген, Борис Коджо, Александра Даддарио, Патти Форте, Джейсон Судейкис
Описание: Фил Миллер когда-то был просто обычным парнем, который любил свою семью и ненавидел свою работу в банке — теперь он последняя надежда человечества. Найдет ли он когда-нибудь другого живого человека на планете?
Доп. информация:

Качество: HDTVRip
Формат: AVI
Видео: 720x400 (1.80:1), 30 fps, XviD build 50 ~1368 kbps avg, 0.16 bit/pixel
Аудио: 44.100 kHz, MPEG Layer 3, 2 ch, ~128.00 kbps avg
Субтитры: отсутствуют

MediaInfo

Общее
Полное имя : D:\TORRENT\The.Last.Man.on.Earth.S02.HDTVRip.LevshaFilm\The.Last.Man.on.Earth.S02E01.HDTVRip.LevshaFilm.avi
Формат : AVI
Формат/Информация : Audio Video Interleave
Размер файла : 227 Мбайт
Продолжительность : 21 м.
Общий поток : 1508 Кбит/сек
Программа кодирования : VirtualDubMod 1.5.10.3 | www.virtualdub-fr.org || (build 2550/release)
Библиотека кодирования : VirtualDubMod build 2550/release
Видео
Идентификатор : 0
Формат : MPEG-4 Visual
Профиль формата : Advanced Simple@L5
Параметр BVOP формата : 2
Параметр QPel формата : Нет
Параметр GMC формата : Без точки перехода
Параметр матрицы формата : Default (MPEG)
Идентификатор кодека : XVID
Идентификатор кодека/Подсказка : XviD
Продолжительность : 21 м.
Битрейт : 1368 Кбит/сек
Ширина : 720 пикселей
Высота : 400 пикселей
Соотношение сторон : 16:9
Частота кадров : 30,000 кадров/сек
Цветовое пространство : YUV
Субдискретизация насыщенности : 4:2:0
Битовая глубина : 8 бит
Тип развёртки : Прогрессивная
Метод сжатия : С потерями
Бит/(Пиксели*Кадры) : 0.158
Размер потока : 206 Мбайт (91%)
Библиотека кодирования : XviD 1.2.1 (UTC 2008-12-04)
Аудио
Идентификатор : 1
Формат : MPEG Audio
Версия формата : Version 1
Профиль формата : Layer 3
Идентификатор кодека : 55
Идентификатор кодека/Подсказка : MP3
Продолжительность : 21 м.
Вид битрейта : Постоянный
Битрейт : 128 Кбит/сек
Каналы : 2 канала
Частота : 44,1 КГц
Метод сжатия : С потерями
Размер потока : 19,2 Мбайт (8%)
Выравнивание : Разделение по промежуткам
Продолжительность промежутка : 33 мс. (1,00 видеокадр)
Время предзагрузки промежутка : 500 мс.
Библиотека кодирования : LAME3.99r
Настройки программы : -m s -V 4 -q 2 -lowpass 17 -b 128

Скриншоты

Внимание! Раздача ведётся путём добавления новых серий

Внимание! Раздача ведётся путём добавления новых серий; при каждом добавлении создаётся новый торрент. Чтобы начать докачку новой серии, пользователям необходимо сделать следующее:
(1) остановить скачивание,
(2) удалить старый торрент у себя из клиента (старые серии удалять не надо),
(3) скачать новый торрент и запустить его у себя в клиенте вместо старого, при этом указать клиенту путь в старую папку куда и должно происходить скачивание новых серий.
Ваш клиент при этом должен произвести хеширование (проверку) старой папки (если не производит сам - помогите ему сделать это), и будет докачивать только те серии которых у вас ещё нет. Старые серии при этом не удаляются, а продолжают раздаваться!
Eсли вы уже удалили старые серии, то предотвратить повторную закачку старых серий можно, отжав галочку в соответствующих местах при запуске нового торрента. По возможности, желательно не удалять старые серии как можно дольше, чтобы релизёр не столько продолжал раздавать старые серии, а смог сконцентрироваться на новых.
Внимание! Раздача с часу ночи до 7 утра (мск)
Вне форума [Профиль] [ЛС]
Похожие темы
Форум Тема Автор Торрент Отв. Посл. сообщение
./templates/default/images/folder_dl.gif Новинки (HD|DVD|BD|WEB|TV|SAT|PDTV|-Rip) Звёздные войны: Последние джедаи / Star Wars: The Last Jedi (Райан Джонсон) [2017, фантастика, фэнтези, боевик, приключения, HDRip-AVC] DUB | iTunes Theseus
1 | 0

0 | 276

3

2018-03-13 13:46
Theseus Последнее
./templates/default/images/folder_dl.gif Новинки (BD|HDTV|DVD) Звёздные войны: Последние джедаи / Star Wars: The Last Jedi (Райан Джонсон) [2017, фантастика, фэнтези, боевик, приключения, UHD BDRemux 2160p] DUB | iTunes Theseus
1 | 0

0 | 371

2

2018-03-15 14:03
Theseus Последнее
Показать сообщения:    
Ответить на тему

Текущее время: Сегодня 14:30

Часовой пояс: GMT + 3



Вы не можете начинать темы
Вы не можете отвечать на сообщения
Вы не можете редактировать свои сообщения
Вы не можете удалять свои сообщения
Вы не можете голосовать в опросах
Вы не можете прикреплять файлы к сообщениям
Вы не можете скачивать файлы