Сегодня идет свободное скачивание без начисления Download

Когда зовёт сердце / When Calls the Heart / Сезон: 2 / Серии: 1 из 7 (Нилл Фернли) [2015, драма, WEB-DL 1080p] DVO (RedDiamond Studio) + Original + Subs (Rus, Eng)

Ответить на тему
 
Автор
Сообщение

Omen ®

Стаж: 5 лет 7 месяцев

Сообщений: 185427

Торрент-статистика

Пост 10-Мар-2016 18:00

[Цитировать]

Когда зовёт сердце / When Calls the Heart-- -- Год выпуска: 2015 (2 сезон)
Страна: США
Жанр: Драма, мелодрама, экранизация
Продолжительность: 3 х ~ 01:25:00; 4 x ~ 00:43:00
Перевод: Любительский двухголосый (RedDiamond Studio)
Субтитры: Русские, английские--Режиссёр: Нилл Фернли / Neill Fearnley--В ролях: Erin Krakow (Элизабет Тэтчер), Daniel Lissing (Джек Торнтон), Lori Loughlin (Эбигейл Стентон), Jack Wagner (Билл Эвери), Max Lloyd-Jones (Том Торнтон), Pascale Hutton (Розмари ЛеВу), Martin Cummins (Генри Гоуэн), Loretta Walsh (Флоренс Блэйкли), Eva Bourne (Клэр Стэнтон), Garwin Sanford (Уильям Тэтчер), Lynda Boyd (Грейс Тэтчер), Marcus Rosner (Чарльз Кенсингтон), Andrea Brooks (Сестра Фей Картер), Devon Weigel (Виола Тэтчер), Jay Hindle (Сэр Лайонел), Kavan Smith (Лиланд Колтер), Mark Humphrey (Преподобный Фрэнк Хоган), Charlotte Hegele (Джулия Тэтчер), Mitchell Kummen (Гейб Монтгомери), Kristina Wagner (Нора), и др.--Описание: Сериал основан на сюжете книг Джанет Оак. Главная героиня, Элизабет Тэтчер, новоиспеченная учительница и начать свою преподавательскую деятельность ей выпало в маленьком провинциальном шахтёрском городишке. Во втором сезоне Элизабет придется выдержать нелегкую схватку между двумя мирами, которым она принадлежит: респектабельным и снобистким миром Гамильтона, в котором она выросла и с которым крепко связана неразрывными семейными узами и новым - ершистым, кипучим и будоражащим миром растущего провинциального городка, которому отныне принадлежит ее сердце…--

Доп. информация:

Текст читали: Ольга Брыкина и Богдан Филенко
Перевод субтитров: Sed, Googlya, LitaF, LauraB, cinicus, Svaja4ka, lilianna911
--

Список серий

01. Испытание сердца / Trials of the Heart

Отношения Элизабет и Джека, едва успевают начаться, когда девушка получает из дома тревожные известия, которые вынуждают ее спешно вернуться домой. Джек вызывается ее сопровождать. А городок, тем временем, живет в ожидании начала судебного процесса Тихоокеанской Северо-западной горнодобывающей компанией.
--Качество: WEB-DL 1080р
Формат: MKV
Видео кодек: H.264
Аудио кодек: AC3
Видео: MPEG-4 AVC, 1912x1072 (16:9), 23.976 fps, ~ 5500 Kbps
Аудио 1: [Русский] AC3, 48 kHz, 6 ch, 384 Кbps
Аудио 2: [Английский] AC3, 48 kHz, 6 ch, 384 Kbps
Субтитры: Русские, английские (SRT)
-- --

MediaInfo

Код:
General
Unique ID                   : 212806005830214162676563958731961181259 (0xA018F22654BFBAD2A762138379D6A44B)
Complete name               : I:\...\When.Calls.the.Heart S02.1080p.WEB-DL.MediaClub\When.Calls.the.Heart.S02E01.Trials.of.the.Heart.1080p.WEB-DL.Rus.Eng_MediaClub.mkv
Format                      : Matroska
Format version              : Version 4 / Version 2
File size                   : 3.42 GiB
Duration                    : 1h 24mn
Overall bit rate            : 5 826 Kbps
Encoded date                : UTC 2016-03-10 00:37:49
Writing application         : mkvmerge v7.5.0 ('Glass Culture') 64bit built on Jan  4 2015 16:48:44
Writing library             : libebml v1.3.1 + libmatroska v1.4.2
Cover                       : Yes
Attachments                 : small_cover.jpg / cover.jpg / cover_land.jpg / small_cover_land.jpg
Video
ID                          : 1
Format                      : AVC
Format/Info                 : Advanced Video Codec
Format profile              : High@L4
Format settings, CABAC      : Yes
Format settings, ReFrames   : 4 frames
Codec ID                    : V_MPEG4/ISO/AVC
Duration                    : 1h 24mn
Bit rate                    : 5 056 Kbps
Width                       : 1 912 pixels
Height                      : 1 072 pixels
Display aspect ratio        : 16:9
Frame rate mode             : Constant
Frame rate                  : 23.976 (23976/1000) fps
Color space                 : YUV
Chroma subsampling          : 4:2:0
Bit depth                   : 8 bits
Scan type                   : Progressive
Bits/(Pixel*Frame)          : 0.103
Stream size                 : 2.97 GiB (87%)
Default                     : Yes
Forced                      : No
Color range                 : Limited
Color primaries             : BT.709
Transfer characteristics    : BT.709
Matrix coefficients         : BT.709
Audio #1
ID                          : 2
Format                      : AC-3
Format/Info                 : Audio Coding 3
Mode extension              : CM (complete main)
Format settings, Endianness : Big
Codec ID                    : A_AC3
Duration                    : 1h 24mn
Bit rate mode               : Constant
Bit rate                    : 384 Kbps
Channel(s)                  : 6 channels
Channel positions           : Front: L C R, Side: L R, LFE
Sampling rate               : 48.0 KHz
Frame rate                  : 31.250 fps (1536 spf)
Compression mode            : Lossy
Stream size                 : 231 MiB (7%)
Title                       : RedDiamond Studio
Language                    : Russian
Default                     : Yes
Forced                      : No
Audio #2
ID                          : 3
Format                      : AC-3
Format/Info                 : Audio Coding 3
Mode extension              : CM (complete main)
Format settings, Endianness : Big
Codec ID                    : A_AC3
Duration                    : 1h 24mn
Bit rate mode               : Constant
Bit rate                    : 384 Kbps
Channel(s)                  : 6 channels
Channel positions           : Front: L C R, Side: L R, LFE
Sampling rate               : 48.0 KHz
Frame rate                  : 31.250 fps (1536 spf)
Compression mode            : Lossy
Stream size                 : 231 MiB (7%)
Language                    : English
Default                     : No
Forced                      : No
Text #1
ID                          : 4
Format                      : UTF-8
Codec ID                    : S_TEXT/UTF8
Codec ID/Info               : UTF-8 Plain Text
Duration                    : 41mn 21s
Bit rate                    : 147 bps
Count of elements           : 935
Stream size                 : 44.7 KiB (0%)
Language                    : Russian
Default                     : No
Forced                      : No
Text #2
ID                          : 5
Format                      : UTF-8
Codec ID                    : S_TEXT/UTF8
Codec ID/Info               : UTF-8 Plain Text
Duration                    : 1h 23mn
Bit rate                    : 80 bps
Count of elements           : 1776
Stream size                 : 48.9 KiB (0%)
Language                    : English
Default                     : No
Forced                      : No
[/spoiler]
--

Внимание! Раздача ведётся путём добавления новых серий

Внимание! Раздача ведётся путём добавления новых серий; при каждом добавлении создаётся новый торрент. Чтобы начать докачку новой серии, пользователям необходимо сделать следующее:
(1) остановить скачивание,
(2) удалить старый торрент у себя из клиента (старые серии удалять не надо),
(3) скачать новый торрент и запустить его у себя в клиенте вместо старого, при этом указать клиенту путь в старую папку куда и должно происходить скачивание новых серий.
Ваш клиент при этом должен произвести хеширование (проверку) старой папки (если не производит сам - помогите ему сделать это), и будет докачивать только те серии которых у вас ещё нет. Старые серии при этом не удаляются, а продолжают раздаваться!
Eсли вы уже удалили старые серии, то предотвратить повторную закачку старых серий можно, отжав галочку в соответствующих местах при запуске нового торрента. По возможности, желательно не удалять старые серии как можно дольше чтобы релизер не столько продолжал раздавать старые серии, а смог сконцентрироваться на новых.
--

Скриншоты


--
Вне форума [Профиль] [ЛС]
Похожие темы
Форум Тема Автор Торрент Отв. Посл. сообщение
./templates/default/images/folder_dl.gif Обучающая и развивающая литература, учебники Рудольф Ташнер | Число, пришедшее с холода. Когда математика становится приключением (2018) [PDF] }{@R0N
1 | 0

0 | 527

8

2018-03-23 12:00
}{@R0N Последнее
Показать сообщения:    
Ответить на тему

Текущее время: Сегодня 22:49

Часовой пояс: GMT + 3



Вы не можете начинать темы
Вы не можете отвечать на сообщения
Вы не можете редактировать свои сообщения
Вы не можете удалять свои сообщения
Вы не можете голосовать в опросах
Вы не можете прикреплять файлы к сообщениям
Вы не можете скачивать файлы