Today is a free download without charge Download

Елена Минакова | Волшебные коллажи в Adobe Photoshop VIP (2016) PCRec [H.264/720p]

Reply to topic
 
Author
Message

Omen ®

Longevity: 6 years 6 months

Posts: 181112

Торрент-статистика

Post 10-Mar-2016 00:07

[Quote]

Волшебные коллажи в Adobe Photoshop VIP (2016) - Автор (режиссер): Елена Минакова
Производство: photoshop-master
Жанр: Ретушь и обработка фото
Описание:
Хотите научиться создавать волшебные коллажи в Adobe Photoshop. Фотоколлаж - соединение нескольких фотоизображений в одной картинке, при котором все объекты смотрятся как единое целое. 5 принципов качественного коллажа: качественные исходные материалы, композиция работы, тени, свет и рефлексы, работа с цветом, оригинальность работы. Курс состоит из 76-ти уроков, пройдя которые вы с полного нуля создадите 12 потрясающих коллажей осознанно повторяя за автором и понимая, что и для чего вы делаете.
Продолжительность: 25:30:31
Качество видео: PCRec
Видео: AVC/H.264, 1280x720, ~752 Kbps
Аудио: AAC, 2 ch, 110 Kbps, VBR

Mediainfo:

Код:
General
Complete name                  : J:\Елена Минакова - Волшебные коллажи в Adobe Photoshop (2016)\volshebnie_collagi\rs\video\1\01.mp4
Format                         : MPEG-4
Format profile                 : Base Media / Version 2
Codec ID                       : mp42
File size                      : 108 MiB
Duration                       : 17mn 25s
Overall bit rate mode          : Variable
Overall bit rate               : 864 Kbps
Movie name                     : Волшебные фонарики часть1
Encoded date                   : UTC 2015-09-27 11:39:08
Tagged date                    : UTC 2015-09-27 11:39:08
Video
ID                             : 1
Format                         : AVC
Format/Info                    : Advanced Video Codec
Format profile                 : [url=mailto:Baseline@L3.1]Baseline@L3.1[/url]
Format settings, CABAC         : No
Format settings, ReFrames      : 3 frames
Codec ID                       : avc1
Codec ID/Info                  : Advanced Video Coding
Duration                       : 17mn 25s
Bit rate                       : 752 Kbps
Width                          : 1 280 pixels
Height                         : 720 pixels
Display aspect ratio           : 16:9
Frame rate mode                : Constant
Frame rate                     : 20.000 fps
Color space                    : YUV
Chroma subsampling             : 4:2:0
Bit depth                      : 8 bits
Scan type                      : Progressive
Bits/(Pixel*Frame)             : 0.041
Stream size                    : 93.7 MiB (87%)
Language                       : English
Encoded date                   : UTC 2015-09-27 11:39:09
Tagged date                    : UTC 2015-09-27 11:39:09
Audio
ID                             : 2
Format                         : AAC
Format/Info                    : Advanced Audio Codec
Format profile                 : LC
Codec ID                       : 40
Duration                       : 17mn 25s
Bit rate mode                  : Variable
Bit rate                       : 110 Kbps
Maximum bit rate               : 139 Kbps
Channel count                  : 2 channels
Channel positions              : Front: L R
Sampling rate                  : 44.1 KHz
Compression mode               : Lossy
Stream size                    : 13.7 MiB (13%)
Language                       : English
Encoded date                   : UTC 2015-09-27 11:39:09
Tagged date                    : UTC 2015-09-27 11:39:09
Скриншоты:
       
Other forum [Profile] [PM]
Display posts from previous:    
Reply to topic

The time now is: Today 07:05

All times are GMT + 3 Hours



You cannot post new topics in this forum
You cannot reply to topics in this forum
You cannot edit your posts in this forum
You cannot delete your posts in this forum
You cannot vote in polls in this forum
You cannot attach files in this forum
You cannot download files in this forum