Today is a free download without charge Download

Андрей Зейгарник | Композиция и психология восприятия (2016) PCRec

Reply to topic
 
Author
Message

Omen ®

Longevity: 7 years

Posts: 181090

Торрент-статистика

Post 09-Mar-2016 21:43

[Quote]

Андрей Зейгарник
Композиция и психология восприятия
- Автор (режиссер): Андрей Зейгарник
Жанр: Фото
Описание:
СДЕЛАЙТЕ КОМПОЗИЦИЮ СИЛЬНОЙ СТОРОНОЙ ВАШИХ ФОТО
Приглашаем на авторский онлайн-курс по вопросам композиции в фотографии, который призван разрушить многочисленные мифы вокруг этой темы и освободить фотографа от шаблонов и рамок в творчестве. В практической части курс предполагает проектную работу, результирующую освоенный материал.
Предлагаемый онлайн-курс по композиции имеет целый ряд преимуществ над известными офлайн-курсами. Его плюсами являются высокая степень структурированности, связь с научными знаниями, минимальное количество умозрительных идей и субъективных суждений. Многие книги и статьи по композиции описывают, «как надо делать», не упоминая при этом, что любые правила не универсальны, и не обозначая пределов применимости этих правил. На данном курсе вы научитесь понимать, уместен ли тот или иной прием. В программе также сделан акцент на отличиях и особенностях фотографии от других визуальных искусств.
Научной базой для курса служит специальная литература по когнитивной психологии и самостоятельные научные исследования автора курса в совокупности с критическим анализом литературы по композиции, в том числе иностранной. Личный опыт преподавателя по отбору и систематизации материала также сыграл свою роль. В курсе приводятся разъяснения о том, почему ложные правила и ошибочные теории мешают творческому развитию фотографа, предлагаются конкретные методики для самостоятельного развития, обсуждаются не только вопросы композиции отдельного кадра, но и оформление альбомов, фотокниг и выставок. Курс заканчивается выполнением итоговой курсовой работы, чтобы каждый учащийся мог применить полученные знания на практике.
Продолжительность: 18:23:16
Качество видео: PCRec
Видео: WMV1, 1916x964, ~375 kb/s
Аудио: WMA, 2 ch, 96.0 kb/s, CBR

Mediainfo:

Код:
General
Complete name                  : S:\Андрей Зейгарник - Композиция и психология восприятия (2016)\01 занятие\КМ1.1.wmv
Format                         : Windows Media
File size                      : 214 MiB
Duration                       : 1 h 2 min
Overall bit rate mode          : Variable
Overall bit rate               : 476 kb/s
Maximum Overall bit rate       : 984 kb/s
Encoded date                   : UTC 2016-05-28 07:33:39.775
Video
ID                             : 2
Format                         : WMV1
Codec ID                       : WMV1
Codec ID/Info                  : Windows Media Video 7
Description of the codec       : Windows Media Video V7
Duration                       : 1 h 2 min
Bit rate mode                  : Variable
Bit rate                       : 375 kb/s
Width                          : 1 916 pixels
Height                         : 964 pixels
Display aspect ratio           : 1.988
Frame rate                     : 10.000 FPS
Bit depth                      : 8 bits
Bits/(Pixel*Frame)             : 0.020
Stream size                    : 169 MiB (79%)
Language                       : English (US)
Audio
ID                             : 1
Format                         : WMA
Format version                 : Version 2
Codec ID                       : 161
Codec ID/Info                  : Windows Media Audio
Description of the codec       : Windows Media Audio 9.2 -  96 kbps, 44 kHz, stereo 1-pass CBR
Duration                       : 1 h 2 min
Bit rate mode                  : Constant
Bit rate                       : 96.0 kb/s
Channel(s)                     : 2 channels
Sampling rate                  : 44.1 kHz
Bit depth                      : 16 bits
Stream size                    : 43.2 MiB (20%)
Language                       : English (US)
Скриншоты:
       
Other forum [Profile] [PM]
Similar theme
Forum Topic Author Torrent Replies Last Post
./templates/default/images/folder_dl.gif Медицина и Здоровье Андрей Липень | Йога для позвоночника и суставов (2016) [FB2] NarDok
1 | 0

0 | 876

14

2015-10-21 21:21
NarDok Latest
./templates/default/images/folder_dl.gif Разное Латыпов Нурали; Вассерман Анатолий - Крапли Толкинен Цитаты от Хеопса до Джобса [Леонов Андрей, 2015 г., 96 kbps, MP3] Omen
1 | 0

0 | 785

0

2016-01-16 12:00
Omen Latest
./templates/default/images/folder_dl.gif Психология, Тренинг, Саморазвитие Андрей Парабеллум, Николай Мрочковский | Быстрые результаты. 10-дневная программа повышения личной эффективности (2012) [FB2, PDF, DOCX] moralis
1 | 0

0 | 853

1

2016-02-04 13:13
moralis Latest
./templates/default/images/folder_dl.gif Обучающее видео Андрей Журавлев. | Мастер-класс. Цветокоррекция по числам. (2013) WEBRip [H.264] moralis
1 | 0

0 | 2768

37

2016-04-03 14:30
moralis Latest
./templates/default/images/folder_dl.gif Фантастика, фэнтези, ужасы, мистика Андрей Самусев | Игра как жизнь (2018) [FB2] }{@R0N
1 | 0

0 | 523

2

2018-09-14 11:05
}{@R0N Latest
./templates/default/images/folder_dl.gif Фантастика, фэнтези, ужасы, мистика Андрей Синицын (сост.) | 2084.ru [сборник] (2018) [FB2] }{@R0N
1 | 0

0 | 638

2

2019-01-22 22:32
}{@R0N Latest
./templates/default/images/folder_dl.gif Психология, Тренинг, Саморазвитие Русских Андрей | ВСД, панические атаки, навязчивые мысли: полный курс избавления (2018) [MP3] }{@R0N
1 | 0

0 | 1142

0

2019-01-22 23:56
}{@R0N Latest
./templates/default/images/folder_dl.gif Психология, Тренинг, Саморазвитие Андрей Курпатов | Наука о сексе (2019) [PDF] }{@R0N
1 | 0

0 | 662

0

2019-04-19 22:23
}{@R0N Latest
./templates/default/images/folder_dl.gif Новинки (HD|DVD|BD|WEB|TV|SAT|PDTV|-Rip) Балканский рубеж (Андрей Волгин) [2019 г., боевик, драма, WEB-DLRip ] [iTunes] kilmister777
1 | 0

0 | 1600

0

2019-05-02 12:19
kilmister777 Latest
./templates/default/images/folder_dl.gif Новинки (HD|DVD|BD|WEB|TV|SAT|PDTV|-Rip) Болевой порог (Андрей Симонов) [2019 г., триллер, приключения, драма, WEB-DLRip] iTunes kilmister777
1 | 0

0 | 175

0

Yesterday 08:12
kilmister777 Latest
Display posts from previous:    
Reply to topic

The time now is: Today 14:06

All times are GMT + 3 Hours



You cannot post new topics in this forum
You cannot reply to topics in this forum
You cannot edit your posts in this forum
You cannot delete your posts in this forum
You cannot vote in polls in this forum
You cannot attach files in this forum
You cannot download files in this forum