Today is a free download without charge Download

Хороший мальчик (Оксана Карас) [2016 г., комедия, WEB-DLRip] Original (RUS)[iTunes Russia]

Reply to topic
 
Author
Message

Omen ®

Longevity: 6 years 9 months

Posts: 181090

Торрент-статистика

Post 09-Mar-2016 15:42

[Quote]

--Хороший мальчик--«Вырастешь - поймешь!»-- Производство: Россия, 2D Целлулоид, Art Pictures Studio
Год выпуска: 2016 г.
Жанр: комедия
Продолжительность: 01:35:07--Мировая премьера: 3 ноября 2016
Российская премьера: 10 ноября 2016, «WDSSPR»--Режиссер: Оксана Карас--В ролях: Семён Трескунов, Константин Хабенский, Михаил Ефремов, Александр Паль, Анастасия Богатырева, Василий Буткевич, Иева Андреевайте, Ирина Денисова, Татьяна Догилева, Ирина Пегова--Описание: Обычная, казалось бы, неделя из жизни ничем не примечательного школьника Коли Смирнова превращается в череду невероятных происшествий: Коля влюбляется в учительницу английского, кто-то поджигает школьную пристройку с новыми компьютерами, а папа Коли заявляет семье о необходимости отказа от ночного сна, из-за чего никому в доме не удается выспаться и собраться с мыслями. Вдобавок в самого Колю влюбляется дочка директора, старшеклассница Ксюша, решившая, что это именно он поджёг школу. Остаётся всего несколько дней до субботнего праздника школы, где должны встретиться все действующие лица этого водоворота событий, и теперь хорошему мальчику Коле необходимо успеть разобраться со своей личной жизнью, расследовать поджог и наладить взаимоотношения с родителями.----Качество видео: WEB-DLRip
Контейнер: AVI
Видео кодек: XviD
Аудио кодек: AC3
Видео: 720x320 (2.25:1), 24.000 fps, XviD build 73 ~1793 kbps avg, 0.32 bit/pixel
Аудио: 48 kHz, AC3 Dolby Digital, 3/2 (L,C,R,l,r) + LFE ch, ~384 kbps
Cубтитры: отсутствуют

Media Info

Общее
Полное имя : H:\Torrent2\Horoshij.Maljchikr.2016.XviD.WEB-DLRip.avi
Формат : AVI
Формат/Информация : Audio Video Interleave
Размер файла : 1,45 Гбайт
Продолжительность : 1 ч. 35 м.
Общий поток : 2187 Кбит/сек
Программа кодирования : VirtualDubMod 1.5.10.3 | www.virtualdub-fr.org || (build 2550/release)
Библиотека кодирования : VirtualDubMod build 2550/release
Видео
Идентификатор : 0
Формат : MPEG-4 Visual
Профиль формата : Advanced Simple@L5
Параметр BVOP формата : 1
Параметр QPel формата : Нет
Параметр GMC формата : Без точки перехода
Параметр матрицы формата : Выборочная
Идентификатор кодека : XVID
Идентификатор кодека/Подсказка : XviD
Продолжительность : 1 ч. 35 м.
Битрейт : 1793 Кбит/сек
Ширина : 720 пикселей
Высота : 320 пикселей
Соотношение сторон : 2,25:1
Частота кадров : 24,000 кадра/сек
Цветовое пространство : YUV
Субдискретизация насыщенности : 4:2:0
Битовая глубина : 8 бит
Тип развёртки : Прогрессивная
Метод сжатия : С потерями
Бит/(Пиксели*Кадры) : 0.324
Размер потока : 1,19 Гбайт (82%)
Библиотека кодирования : XviD 73
Аудио
Идентификатор : 1
Формат : AC-3
Формат/Информация : Audio Coding 3
Расширение режима : CM (complete main)
Параметр Endianness формата : Big
Идентификатор кодека : 2000
Продолжительность : 1 ч. 35 м.
Вид битрейта : Постоянный
Битрейт : 384 Кбит/сек
Каналы : 6 каналов
Расположение каналов : Front: L C R, Side: L R, LFE
Частота : 48,0 КГц
Частота кадров : 31,250 кадров/сек (1536 spf)
Метод сжатия : С потерями
Размер потока : 261 Мбайт (18%)
Выравнивание : Разделение по промежуткам
Продолжительность промежутка : 42 мс. (1,00 видеокадр)
Время предзагрузки промежутка : 500 мс.

Скриншоты

     
     

Трейлер

Other forum [Profile] [PM]
Similar theme
Forum Topic Author Torrent Replies Last Post
./templates/default/images/folder_dl.gif Бизнес, Право, Экономика, Финансы Ричард Румельт | Хорошая стратегия, плохая стратегия. В чем отличие и почему это важно (2014) [PDF] Omen
1 | 0

0 | 780

2

2015-07-15 23:08
Omen Latest
Display posts from previous:    
Reply to topic

The time now is: Today 18:01

All times are GMT + 3 Hours



You cannot post new topics in this forum
You cannot reply to topics in this forum
You cannot edit your posts in this forum
You cannot delete your posts in this forum
You cannot vote in polls in this forum
You cannot attach files in this forum
You cannot download files in this forum