Today is a free download without charge Download

Дмитрий Федотов | Stratofortress. Создание анимационного фильма (2013) PCRec [H.264]

Reply to topic
 
Author
Message

Omen ®

Longevity: 6 years 6 months

Posts: 181112

Торрент-статистика

Post 09-Mar-2016 15:28

[Quote]

Stratofortress. Создание анимационного фильма - Автор (режиссер): Дмитрий Федотов
Производство: Render.ru
Жанр: 3D моделирование, Анимация
Описание:
Курс рассчитан на всех, владеющих программой 3ds Max на базовом уровне, желающих усовершенствовать свои знания и умения, понять и научиться делать анимационные фильмы.
Авторский курс, описывающий процесс создания мультфильма от начала до конца. Все стадии его производства. Планирование, раскадровки, аниматик, концепты, моделинг, анимация, рендеринг, композинг. Курс рассчитан на два месяца, за которые вы просмотрите видеотуториалы, и создадите свою, упрощенную версию того же мультфильма.
Продолжительность: 11:05:00
Качество видео: PCRec
Видео: AVC/H.264, 1280x720-1920х1080, ~882 Kbps
Аудио: AAC, 2 ch, 88.7 Kbps, CBR

Mediainfo:

Код:
General
Complete name                            : C:\Torrents\Федотов Дмитрий - Stratofortress. Создание анимационного фильма\6\2lesson_part1.mp4
Format                                   : MPEG-4
Format profile                           : Base Media / Version 2
Codec ID                                 : mp42
File size                                : 50.0 MiB
Duration                                 : 6mn 51s
Overall bit rate                         : 1 020 Kbps
Encoded date                             : UTC 2012-06-20 15:41:05
Tagged date                              : UTC 2012-06-20 15:41:05
Video
ID                                       : 1
Format                                   : AVC
Format/Info                              : Advanced Video Codec
Format profile                           : [url=mailto:High@L4.0]High@L4.0[/url]
Format settings, CABAC                   : Yes
Format settings, ReFrames                : 4 frames
Codec ID                                 : avc1
Codec ID/Info                            : Advanced Video Coding
Duration                                 : 6mn 51s
Source duration                          : 6mn 51s
Bit rate                                 : 882 Kbps
Width                                    : 1 600 pixels
Height                                   : 900 pixels
Display aspect ratio                     : 16:9
Frame rate mode                          : Constant
Frame rate                               : 25.000 fps
Standard                                 : PAL
Color space                              : YUV
Chroma subsampling                       : 4:2:0
Bit depth                                : 8 bits
Scan type                                : Progressive
Bits/(Pixel*Frame)                       : 0.024
Stream size                              : 43.2 MiB (86%)
Source stream size                       : 45.5 MiB (91%)
Language                                 : English
Encoded date                             : UTC 2012-06-20 15:41:05
Tagged date                              : UTC 2012-06-20 15:41:05
Color primaries                          : BT.709
Transfer characteristics                 : BT.709
Matrix coefficients                      : BT.709
mdhd_Duration                            : 411254
Audio
ID                                       : 2
Format                                   : AAC
Format/Info                              : Advanced Audio Codec
Format profile                           : LC
Codec ID                                 : 40
Duration                                 : 6mn 51s
Source duration                          : 6mn 51s
Bit rate mode                            : Constant
Bit rate                                 : 88.7 Kbps
Channel(s)                               : 2 channels
Channel positions                        : Front: L R
Sampling rate                            : 44.1 KHz
Compression mode                         : Lossy
Stream size                              : 4.35 MiB (9%)
Source stream size                       : 4.35 MiB (9%)
Language                                 : English
Encoded date                             : UTC 2012-06-20 15:41:05
Tagged date                              : UTC 2012-06-20 15:41:05
mdhd_Duration                            : 411310

Программа курса:

1. Рисование концепта самолета.
2. Композинг в Fusion. Создаем инфографику для монитора внутри самолета.
3. Создаем основу корпуса самолета в 3DS Max. Моделинг.
4. Рисование раскадровки, планирование проекта, аниматик будущего мультфильма.
5. Заряды внутри бомбы. Немного ZBrush.
6. Кассетная бомба самолета. Моделинг, мапинг, текстуринг. 3DS Max, Unfold 3d, Photoshop.
7. Механизмы, шестерни поршни и т.д. Моделинг, сетап, анимация.
8. Моделирование двигателя. Моделинг, мапинг, текстуринг.
9. Создание пушек, создание контроллеров позволяющих пушкам крутиться, поворачивать орудия и смотреть в цель.
10. Настройка анимации сцены и рендеринг с помошью V-Ray.
11. Создание, рендеринг, композинг первого отрезка анимации. Рендеринг основного и доп каналов в OpenEXR. Работа с картами Indirect Illumination в анимации. Рендеринг фрагмента изображения (фюзеляжная живопись с цензурой и без цензуры) Трекинг в Fusion.
12. Создание, рендеринг, композинг второго отрезка анимации. Различные инструменты Fusion.
13. Создание, рендеринг, композинг третьего отрезка анимации. Дополнительные рендерпассы. Рендеринг World Pozition Pass. Композинг с WPP.
14. Создание, рендеринг, композинг четвертого отрезка анимации. Композинг 3д модели в Fusion. Шот полностью визуализированный в среде Fusion.
15. Создание пилота бомбардировщика. Комбинирование рисованных и 3д элементов.
16. Шот с уничтоженным городом. Matte painting, композинг.
17. Монтаж видеоролика с помошью Avid Studio.

Превью одного из шотов мультфильма:

Скриншоты:
       
Other forum [Profile] [PM]
Similar theme
Forum Topic Author Torrent Replies Last Post
./templates/default/images/folder_dl.gif Обучающее видео [Profileschool] Дмитрий Шатров | Жанровая съемка в путешествии (2015) PCRec Omen
1 | 0

0 | 1656

37

2015-04-06 16:23
Omen Latest
./templates/default/images/folder_dl.gif Обучающее видео Дмитрий Федотов | Композитинг в программе Eyeon Fusion (2012) PCRec [H.264] Omen
1 | 0

0 | 1218

6

2016-03-09 15:19
Omen Latest
./templates/default/images/folder_dl.gif Компьютерная литература Дмитрий Айвалиотис - Администрирование сервера NGINX [2013, PDF, RUS] Omen
1 | 0

0 | 1583

17

2016-05-03 03:00
Omen Latest
./templates/default/images/folder_dl.gif Строительство, Дизайн и Ремонт Дмитрий Федоров | Электропроводка в квартире. Своими руками (2016) [PDF] }{@R0N
1 | 0

0 | 858

13

2018-02-25 19:10
}{@R0N Latest
./templates/default/images/folder_dl.gif Компьютерная литература Дмитрий Кудрец | Основы MS DOS (2018) [PDF] }{@R0N
1 | 0

0 | 320

1

2018-12-23 18:36
}{@R0N Latest
Display posts from previous:    
Reply to topic

The time now is: Today 07:05

All times are GMT + 3 Hours



You cannot post new topics in this forum
You cannot reply to topics in this forum
You cannot edit your posts in this forum
You cannot delete your posts in this forum
You cannot vote in polls in this forum
You cannot attach files in this forum
You cannot download files in this forum