Сегодня идет свободное скачивание без начисления Download

Скандал / Scandal / Сезон: 5 / Серии: 1-10 из 22 (Том Верика, Оливер Бокельберг, Эллисон Лидди) [2015, драма, триллер, WEB-DL 720p] MVO (Fox Life) + Original

Ответить на тему
 
Автор
Сообщение

Omen ®

Стаж: 5 лет 9 месяцев

Сообщений: 184433

Торрент-статистика

Пост 09-Мар-2016 00:33

[Цитировать]

Скандал / Scandal Год выпуска: 2015
Страна: США
Жанр: драма, триллер
Продолжительность: ~ 00:42:00
Перевод: Профессиональный (многоголосый закадровый) FOX Life
Режиссёр: Том Верика, Оливер Бокельберг, Эллисон Лидди
В ролях: Керри Вашингтон, Дэрби Стэнчфилд, Кэти Лоус, Гильермо Диас, Джефф Перри, Джошуа Малина, Беллами Янг, Тони Голдуин, Коламбус Шорт, Скотт Фоули
Описание: Специалист по связям с общественностью Оливия Поуп, ранее работавшая на президента США, создает свое антикризисное агентство, цель которого — устранять проблемы высокопоставленных клиентов до того, как они станут всеобщим достоянием

Релиз:
Семпл
Качество: WEB-DL 720p
Формат: MKV
Видео кодек: MPEG-4 AVC
Аудио кодек: AC3
Видео: MPEG-4 AVC, ~4023 kbps, 1280x720 (16:9), 25.000 fps, 0.175 bit/pixel
Аудио #1: АС3, 48 kHz, 2 ch, ~192 kbps (FOX Life )
Аудио #2: АС3, 48 kHz, 6 ch, ~384 kbps
Субтитры: Английские

О релизе

Запись звука: Justin, SerGV, BS666
Сведение звука: SerGV

MediaInfo

General
Unique ID : 178822447473250640660424690822102207276 (0x8687F35C99F314B6A339ABBF36954B2C)
Complete name ...Scandal.US.S05E01.Heavy.Is.the.Head.720p.WEB-DL.Rus.Eng.CasStudio.mkv
Format : Matroska
Format version : Version 4 / Version 2
File size : 1.35 GiB
Duration : 41mn 17s
Overall bit rate : 4 692 Kbps
Movie name : Scandal US (2015) S05E01 - Heavy Is the Head @ release by SerGV for CasStudio
Encoded date : UTC 2015-11-03 20:52:29
Writing application : mkvmerge v7.9.0 ('Birds') 32bit
Writing library : libebml v1.3.1 + libmatroska v1.4.2
Attachements : cover.jpg
Video
ID : 1
Format : AVC
Format/Info : Advanced Video Codec
Format profile : High@L3.1
Format settings, CABAC : No
Format settings, ReFrames : 2 frames
Codec ID : V_MPEG4/ISO/AVC
Duration : 41mn 17s
Bit rate : 4 023 Kbps
Width : 1 280 pixels
Height : 720 pixels
Display aspect ratio : 16:9
Frame rate mode : Constant
Frame rate : 25.000 fps
Color space : YUV
Chroma subsampling : 4:2:0
Bit depth : 8 bits
Scan type : Progressive
Bits/(Pixel*Frame) : 0.175
Stream size : 1.16 GiB (86%)
Language : English
Default : Yes
Forced : No
Color range : Limited
Color primaries : BT.709
Transfer characteristics : BT.709
Matrix coefficients : BT.709
Audio #1
ID : 2
Format : AC-3
Format/Info : Audio Coding 3
Mode extension : CM (complete main)
Format settings, Endianness : Big
Codec ID : A_AC3
Duration : 41mn 17s
Bit rate mode : Constant
Bit rate : 192 Kbps
Channel(s) : 2 channels
Channel positions : Front: L R
Sampling rate : 48.0 KHz
Compression mode : Lossy
Stream size : 56.7 MiB (4%)
Title : DD 2.0 @ 192 kbps - Fox Life
Language : Russian
Default : Yes
Forced : No
Audio #2
ID : 3
Format : AC-3
Format/Info : Audio Coding 3
Mode extension : CM (complete main)
Format settings, Endianness : Big
Codec ID : A_AC3
Duration : 41mn 17s
Bit rate mode : Constant
Bit rate : 384 Kbps
Channel(s) : 6 channels
Channel positions : Front: L C R, Side: L R, LFE
Sampling rate : 48.0 KHz
Compression mode : Lossy
Stream size : 113 MiB (8%)
Title : DD 5.1 @ 384 kbps - Original
Language : English
Default : No
Forced : No
Text
ID : 4
Format : UTF-8
Codec ID : S_TEXT/UTF8
Codec ID/Info : UTF-8 Plain Text
Language : English
Default : No
Forced : No

Скриншоты

Раздача ведется путем добавления новых серий

Когда раздача ведётся путём добавления новых серий, при каждом добавлении создётся новый торрент. Чтобы начать докачку новой серии, пользователям необходимо сделать следующее:
1. остановить скачивание,
2. удалить старый торрент у себя из клиента (старые серии удалять не надо),
3. скачать новый торрент и запустить его у себя в клиенте вместо старого, при этом указать клиенту путь в старую папку, куда и должно происходить скачивание новых серий.
Ваш клиент при этом должен произвести хеширование (проверку) старой папки (если не производит сам - помогите ему сделать это), и будет докачивать только те серии, которых у вас ещё нет. Старые серии при этом не удаляются, а продолжают раздаваться!
Eсли вы уже удалили старые серии, то предотвратить повторную закачку старых серий можно, отжав галочку в соответсвующих местах при запуске нового торрента. По возможности, желательно не удалять старые серии как можно дольше, чтобы релизёр не столько продолжал раздавать старые серии, а смог сконцентрироваться на новых.
Вне форума [Профиль] [ЛС]
Показать сообщения:    
Ответить на тему

Текущее время: Сегодня 16:40

Часовой пояс: GMT + 3



Вы не можете начинать темы
Вы не можете отвечать на сообщения
Вы не можете редактировать свои сообщения
Вы не можете удалять свои сообщения
Вы не можете голосовать в опросах
Вы не можете прикреплять файлы к сообщениям
Вы не можете скачивать файлы