Сегодня идет свободное скачивание без начисления Download

Красотки в Кливленде / Hot in Cleveland / Сезон: 6 / Серии: 1-16 из 24 (Энди Кэдифф) [2014, комедия,WEB-DL 720p] MVO (Bona Media Group)

Ответить на тему
 
Автор
Сообщение

Omen ®

Стаж: 5 лет 6 месяцев

Сообщений: 186946

Торрент-статистика

Пост 06-Мар-2016 21:00

[Цитировать]

Красотки в Кливленде / Hot in Cleveland
Год выпуска: 2014
Страна: США
Жанр: комедия
Продолжительность: 22
Перевод: Любительский (многоголосый закадровый) Bona Media Group
Режиссёр: Энди Кэдифф
В ролях: Валери Бертинелли, Джейн Ливз, Уэнди Мэлик, Бетти Уайт, Джорджия Энджел, Джон Махони и др.
Описание: Три подруги определенного возраста – писательница, косметолог и актриса мыльных опер, некогда известные и востребованные в Лос-Анджелесе, из-за вынужденной посадки самолета, на котором они летели в Париж, оказываются в маленьком городке Кливленде. Вскоре приятельницы обнаруживают, что в этом провинциальном городе вовсе не обязательно отвечать эталонам красоты Голливуда, чтобы добиться успеха, а мужчины ценят не молодость и стройность, а душевные качества женщин. Подруги решают пожить некоторое время в этом тихом уголке и снимают домик у Элки Островски – экстравагантной дамочки преклонного возраста.
Сэмпл: http://sendfile.su/1091416
Качество: WEB-DL 720p
Контейнер: MKV
Видео: 1280x718 (16:9), 23.976 fps, AVC, 4 025 Kbps
Аудио: MP3, 192 Kbps, 48.0 KHz, 2 ch
Субтитры: отсутствуют

MediaInfo

Width : 1 280 pixels
Height : 718 pixels
Display aspect ratio : 16:9
Frame rate : 23.976 fps
Color space : YUV
Chroma subsampling : 4:2:0
Bit depth : 8 bits
Scan type : Progressive
Bits/(Pixel*Frame) : 0.183
Stream size : 668 MiB (94%)
Color primaries : BT.709-5, BT.1361, IEC 61966-2-4, SMPTE RP177
Transfer characteristics : BT.709-5, BT.1361
Matrix coefficients : BT.709-5, BT.1361, IEC 61966-2-4 709, SMPTE RP177
Audio
ID : 1
Format : MPEG Audio
Format version : Version 1
Format profile : Layer 3
Mode : Joint stereo
Mode extension : MS Stereo
Codec ID : A_MPEG/L3
Codec ID/Hint : MP3
Duration : 23mn 12s
Bit rate mode : Constant
Bit rate : 192 Kbps
Channel(s) : 2 channels
Sampling rate : 48.0 KHz
Stream size : 31.9 MiB (4%)
Title : Русский

Внимание! Раздача ведётся путём добавления новых серий.

Внимание! Раздача ведётся путём добавления новых серий; при каждом добавлении создётся новый торрент. Чтобы начать докачку новой серии, пользователям необходимо сделать следующее:
  • Остановить скачивание.
  • Удалить старый торрент у себя из клиента (старые серии удалять не надо).
  • Скачать новый торрент и запустить его у себя в клиенте вместо старого, при этом указать клиенту путь в старую папку куда и должно происходить скачивание новых серий.
    Ваш клиент при этом должен произвести хеширование (проверку) старой папки (если не производит сам - помогите ему сделать это), и будет докачивать только те серии которых у вас ещё нет. Старые серии при этом не удаляются, а продолжают раздаваться!
    Eсли вы уже удалили старые серии, то предотвратить повторную закачку старых серий можно, отжав галочку в соответсвующих местах при запуске нового торрента. По возможности, желательно не удалять старые серии как можно дольше чтобы релизёр не столько продолжал раздавать старые серии, а смог сконцентрироваться на новых.

Скриншоты

Вне форума [Профиль] [ЛС]
Показать сообщения:    
Ответить на тему

Текущее время: Сегодня 12:57

Часовой пояс: GMT + 3



Вы не можете начинать темы
Вы не можете отвечать на сообщения
Вы не можете редактировать свои сообщения
Вы не можете удалять свои сообщения
Вы не можете голосовать в опросах
Вы не можете прикреплять файлы к сообщениям
Вы не можете скачивать файлы