Сегодня идет свободное скачивание без начисления Download

Любовь / Love / Сезон: 1 / Серии: 1 (10) (Дин Холлэнд, Стив Бушеми) [2016, комедия, WEBRip 720p] DVO (Ozz) + Original + Rus Sub

Ответить на тему
 
Автор
Сообщение

Omen ®

Стаж: 5 лет 11 месяцев

Сообщений: 184329

Торрент-статистика

Пост 06-Мар-2016 03:00

[Цитировать]

Love - First Season
Любовь - Первый сезон- Год выхода: 2016
Страна: США
Жанр: комедия
Продолжительность: ~32 мин
Перевод: Профессиональный (двухголосый закадровый) Ozz-Режиссер: Дин Холлэнд, Джон Слэттери, Стив Бушеми
В ролях: Гиллиан Джейкобс, Пол Раст, Клаудия О’Доэрти, Джордан Рок, Трейси Томс, Майк Митчелл, Айрис Апатоу, Брига Хилэн, Chris Witaske, Сет Моррис и др.-Описание: Сериал рассказывает о Микки и Гасе, паре, пытающейся пережить неловкие ситуации, унижения и привязанность: все то, чего они пытались избежать.- - Роли озвучивают: | Ирина Воронова и Алексей Серегин |
Автор перевода: | Trotteville |
Подготовлено: Ozz-Качество: WEBRip 720p
Формат: mkv
Видео кодек: x264
Аудио кодек: AC3
Видео: 1280x720 at 23,976 fps, AVC, 4300 kbps avg, 0.195 b/pixel
Аудио #1: Russian 48 kHz, AC3, 6 channels, 640 kbpss |Ozz|
Аудио #2: English 48 kHz, AC3, 6 channels, 640 kbps |Original|
Субтитры: Russian - (srt)

MediaInfo

Код:
Общее
Уникальный идентификатор                 : 181918844276211988449379572214091049496 (0x88DC4B82C287E296BE5111A786656A18)
Полное имя                               : H:\Love.S01.720p.WEBRip.Rus.Eng.Ozz\Love.S01E01.720p.WEBRip.Rus.Eng.Ozz.mkv
Формат                                   : Matroska
Версия формата                           : Version 4 / Version 2
Размер файла                             : 1,60 Гбайт
Продолжительность                        : 40 м.
Общий поток                              : 5711 Кбит/сек
Дата кодирования                         : UTC 2016-03-05 21:50:55
Программа кодирования                    : mkvmerge v6.3.0 ('You can't stop me!') built on Jun 28 2013 20:09:41
Библиотека кодирования                   : libebml v1.3.0 + libmatroska v1.4.0
Видео
Идентификатор                            : 1
Формат                                   : AVC
Формат/Информация                        : Advanced Video Codec
Профиль формата                          : High@L4.1
Параметр CABAC формата                   : Да
Параметр ReFrames формата                : 8 кадров
Идентификатор кодека                     : V_MPEG4/ISO/AVC
Продолжительность                        : 40 м.
Битрейт                                  : 4317 Кбит/сек
Ширина                                   : 1280 пикселей
Высота                                   : 720 пикселей
Соотношение сторон                       : 16:9
Режим частоты кадров                     : Постоянный
Частота кадров                           : 23,976 кадра/сек
Цветовое пространство                    : YUV
Субдискретизация насыщенности            : 4:2:0
Битовая глубина                          : 8 бит
Тип развёртки                            : Прогрессивная
Бит/(Пиксели*Кадры)                      : 0.195
Размер потока                            : 1,21 Гбайт (76%)
Заголовок                                : X264-720
Библиотека кодирования                   : x264 core 148 r2665 a01e339
Настройки программы                      : cabac=1 / ref=8 / deblock=1:-3:-3 / analyse=0x3:0x133 / me=umh / subme=10 / psy=1 / psy_rd=1.00:0.00 / mixed_ref=1 / me_range=36 / chroma_me=1 / trellis=2 / 8x8dct=1 / cqm=0 / deadzone=6,6 / fast_pskip=0 / chroma_qp_offset=-2 / threads=12 / lookahead_threads=2 / sliced_threads=0 / nr=0 / decimate=0 / interlaced=0 / bluray_compat=0 / constrained_intra=0 / bframes=9 / b_pyramid=2 / b_adapt=2 / b_bias=0 / direct=3 / weightb=1 / open_gop=0 / weightp=2 / keyint=250 / keyint_min=23 / scenecut=40 / intra_refresh=0 / rc=crf / mbtree=0 / crf=18.0 / qcomp=0.80 / qpmin=0 / qpmax=69 / qpstep=4 / ip_ratio=1.10 / pb_ratio=1.10 / aq=3:0.80
Язык                                     : English
Default                                  : Да
Forced                                   : Нет
Аудио #1
Идентификатор                            : 2
Формат                                   : AC-3
Формат/Информация                        : Audio Coding 3
Расширение режима                        : CM (complete main)
Параметр Endianness формата              : Big
Идентификатор кодека                     : A_AC3
Продолжительность                        : 40 м.
Вид битрейта                             : Постоянный
Битрейт                                  : 640 Кбит/сек
Каналы                                   : 6 каналов
Расположение каналов                     : Front: L C R, Side: L R, LFE
Частота                                  : 48,0 КГц
Битовая глубина                          : 16 бит
Метод сжатия                             : С потерями
Размер потока                            : 184 Мбайт (11%)
Заголовок                                : DVO Ozz-tv
Язык                                     : Russian
Default                                  : Да
Forced                                   : Нет
Аудио #2
Идентификатор                            : 3
Формат                                   : AC-3
Формат/Информация                        : Audio Coding 3
Расширение режима                        : CM (complete main)
Параметр Endianness формата              : Big
Идентификатор кодека                     : A_AC3
Продолжительность                        : 40 м.
Вид битрейта                             : Постоянный
Битрейт                                  : 640 Кбит/сек
Каналы                                   : 6 каналов
Расположение каналов                     : Front: L C R, Side: L R, LFE
Частота                                  : 48,0 КГц
Битовая глубина                          : 16 бит
Метод сжатия                             : С потерями
Размер потока                            : 184 Мбайт (11%)
Язык                                     : English
Default                                  : Нет
Forced                                   : Нет
Текст
Идентификатор                            : 4
Формат                                   : UTF-8
Идентификатор кодека                     : S_TEXT/UTF8
Идентификатор кодека/Информация          : UTF-8 Plain Text
Заголовок                                : Trotteville
Язык                                     : Russian
Default                                  : Нет
Forced                                   : Нет
[/spoiler]

Screenshots

Внимание! Раздача ведётся путём добавления новых серий

Внимание! Раздача ведётся путём добавления новых серий; при каждом добавлении создаётся новый торрент. Чтобы начать докачку новой серии, пользователям необходимо сделать следующее:
(1) остановить скачивание,
(2) удалить старый торрент у себя из клиента (старые серии удалять не надо),
(3) скачать новый торрент и запустить его у себя в клиенте вместо старого, при этом указать клиенту путь в старую папку куда и должно происходить скачивание новых серий.
Ваш клиент при этом должен произвести хеширование (проверку) старой папки (если не производит сам - помогите ему сделать это), и будет докачивать только те серии которых у вас ещё нет. Старые серии при этом не удаляются, а продолжают раздаваться!
Eсли вы уже удалили старые серии, то предотвратить повторную закачку старых серий можно, отжав галочку в соответствующих местах при запуске нового торрента. По возможности, желательно не удалять старые серии как можно дольше чтобы релизёр не столько продолжал раздавать старые серии, а смог сконцентрироваться на новых.
-
Вне форума [Профиль] [ЛС]
Похожие темы
Форум Тема Автор Торрент Отв. Посл. сообщение
./templates/default/images/folder_dl.gif Приключения и квесты Mahjong Detective: The Stolen Love / Маджонг Детектив. Похищенная Любовь [P] [RUS] (2015) Omen
6 | 0

0 | 1217

21

2015-06-08 21:00
Omen Последнее
Показать сообщения:    
Ответить на тему

Текущее время: Сегодня 11:11

Часовой пояс: GMT + 3



Вы не можете начинать темы
Вы не можете отвечать на сообщения
Вы не можете редактировать свои сообщения
Вы не можете удалять свои сообщения
Вы не можете голосовать в опросах
Вы не можете прикреплять файлы к сообщениям
Вы не можете скачивать файлы