Сегодня идет свободное скачивание без начисления Download

Как избежать наказания за убийство / How to Get Away with Murder / Сезон: 2 / Серии: 1-11 из 15 (Билл Д\'Элиа, Роб Харди) [2015, драма, WEB-DL, 720p] Dub (FOX) + Original

Ответить на тему
 
Автор
Сообщение

Omen ®

Стаж: 6 лет 1 месяц

Сообщений: 184308

Торрент-статистика

Пост 05-Мар-2016 15:00

[Цитировать]

Как избежать наказания за убийство / How to Get Away with Murder
Сезон 2
Год выпуска: 2015
Страна: США
Жанр: драма
Продолжительность: ~ 00:43:00
Перевод: Профессиональный (дублированный) FOX
Субтитры: нет
Релиз: NewStudio
Режиссёр: Билл Д'Элиа, Роб Харди, Джон Терлески, Стивен Уильямс, Стивен Крегг, Майк Листо, Кевин Брэй, Дженнифер Гетцингер
В ролях: Виола Дэвис, Чарли Вебер, Карен Кабрера, Билли Браун, Альфред Энок, Джек Фалахи, Кэти Финдлей, Аджа Наоми Кинг и др.
Описание: Профессор Эннализ Китинг — блестящий адвокат. Она преподает у студентов дисциплину под названием: «Как избежать наказания за убийство». Но те даже не подозревают, что в скором времени им придется применить свои знания в этой области в реальной жизни...-Дополнительная информация: Во избежания непереносимых душевных страданий, сериал крайне не рекомендуется к просмотру гомострадальцам-Сэмпл: http://multi-up.com/1075830
Качество: WEB-DL 720p
Формат: MKV
Видео кодек: H264
Аудио кодек: АС3
Видео: MPEG4 Video (H264) 1280x720 23.976fps 3990kbps
Аудио 1: Rus, Dolby AC3 48000Hz stereo 192kbps
Аудио 2: Eng, Dolby AC3 48000Hz 6ch 384kbps

MediaInfo

Format : Matroska
Format version : Version 4 / Version 2
File size : 1.40 GiB
Duration : 43mn 3s
Overall bit rate : 4 660 Kbps
Encoded date : UTC 2015-11-13 22:14:27
Writing application : mkvmerge v8.2.0 ('World of Adventure') 32bit
Writing library : libebml v1.3.1 + libmatroska v1.4.2
Attachements : small_cover.jpg / cover.jpg / cover_land.jpg / small_cover_land.jpg
DURATION : 00:43:03.328000000
NUMBER_OF_FRAMES : 80729
NUMBER_OF_BYTES : 61999872
_STATISTICS_WRITING_APP : mkvmerge v8.2.0 ('World of Adventure') 32bit
_STATISTICS_WRITING_DATE_UT : 2015-11-13 22:14:27
_STATISTICS_TAGS : BPS DURATION NUMBER_OF_FRAMES NUMBER_OF_BYTES
Video
ID : 1
Format : AVC
Format/Info : Advanced Video Codec
Format profile : High@L3.1
Format settings, CABAC : No
Format settings, ReFrames : 2 frames
Codec ID : V_MPEG4/ISO/AVC
Duration : 43mn 3s
Bit rate : 3 991 Kbps
Width : 1 280 pixels
Height : 720 pixels
Display aspect ratio : 16:9
Frame rate mode : Constant
Frame rate : 23.976 fps
Color space : YUV
Chroma subsampling : 4:2:0
Bit depth : 8 bits
Scan type : Progressive
Bits/(Pixel*Frame) : 0.181
Stream size : 1.20 GiB (86%)
Language : English
Default : Yes
Forced : No
Color range : Limited
Color primaries : BT.709
Transfer characteristics : BT.709
Matrix coefficients : BT.709
Audio #1
ID : 2
Format : AC-3
Format/Info : Audio Coding 3
Mode extension : CM (complete main)
Format settings, Endianness : Big
Codec ID : A_AC3
Duration : 43mn 3s
Bit rate mode : Constant
Bit rate : 192 Kbps
Channel(s) : 2 channels
Channel positions : Front: L R
Sampling rate : 48.0 KHz
Compression mode : Lossy
Stream size : 59.1 MiB (4%)
Title : FOX
Language : Russian
Default : Yes
Forced : No
Audio #2
ID : 3
Format : AC-3
Format/Info : Audio Coding 3
Mode extension : CM (complete main)
Format settings, Endianness : Big
Codec ID : A_AC3
Duration : 43mn 3s
Bit rate mode : Constant
Bit rate : 384 Kbps
Channel(s) : 6 channels
Channel positions : Front: L C R, Side: L R, LFE
Sampling rate : 48.0 KHz
Compression mode : Lossy
Stream size : 118 MiB (8%)
Language : English
Default : No
Forced : No

Скриншоты

Внимание! Раздача ведётся путём добавления новых серий

Внимание! Раздача ведётся путём добавления новых серий; при каждом добавлении создаётся новый торрент. Чтобы начать докачку новой серии, пользователям необходимо сделать следующее:
(1) остановить скачивание,
(2) удалить старый торрент у себя из клиента (старые серии удалять не надо),
(3) скачать новый торрент и запустить его у себя в клиенте вместо старого, при этом указать клиенту путь в старую папку куда и должно происходить скачивание новых серий.
Ваш клиент при этом должен произвести хеширование (проверку) старой папки (если не производит сам - помогите ему сделать это), и будет докачивать только те серии которых у вас ещё нет. Старые серии при этом не удаляются, а продолжают раздаваться!
Eсли вы уже удалили старые серии, то предотвратить повторную закачку старых серий можно, отжав галочку в соответствующих местах при запуске нового торрента. По возможности, желательно не удалять старые серии как можно дольше чтобы релизёр не столько продолжал раздавать старые серии, а смог сконцентрироваться на новых.
Вне форума [Профиль] [ЛС]
Показать сообщения:    
Ответить на тему

Текущее время: Сегодня 17:58

Часовой пояс: GMT + 3



Вы не можете начинать темы
Вы не можете отвечать на сообщения
Вы не можете редактировать свои сообщения
Вы не можете удалять свои сообщения
Вы не можете голосовать в опросах
Вы не можете прикреплять файлы к сообщениям
Вы не можете скачивать файлы