Сегодня идет свободное скачивание без начисления Download

Грузовик / Truck/ Масаит / Сезон: 1 / Серии: 1-13 из 13 (Эран Риклис,) [2002, драма, SATRip]Original иврит+ Rus Subs (Транс Тайтлс ЛТД)

Ответить на тему
 
Автор
Сообщение

Omen ®

Стаж: 5 лет 6 месяцев

Сообщений: 186946

Торрент-статистика

Пост 05-Мар-2016 12:00

[Цитировать]

Грузовик / Truck/ Масаит
Год выпуска: 2002
Страна: Израиль
Жанр: драма
Продолжительность: 00:50
Субтитры: русские,вшитые.
Режиссёр: Эран Риклис,

В ролях: Зеэв Ревах, Сами Хури, Эвелин Хагоэль, Эяль Розалес, Мааян Аруш, Шалом Асияг, Ксения Трочак..
Описание:
Жизнь в городе Иерухам на юге Израиля, как впрочем и в других больших и маленьких городах,идет своим чередом.Иерухамцы ,как и жители других городов живут,работают,влюбляются и.. мечтают..
У Авраама есть мечта: купить новый модернизированный грузовик, чтобы в последствии передать его сыну, Нисо.
Но у Нисо совсем другие планы,он мечтает переехать в Лос-Анжелес, где живет его брат Хаим. Бывшая жена Хаима Тами с детьми Коби и Эразом живет в Израиле,Эраз обучается в школе слесарному делу и кажется, что его будущие уже решено, но в школе появляется новый учитель, мечтающий передать детям свои идеалы и мечты,а это противоречит мечтам директора школы, бывшего участника движения “Черные пантеры”.Ашер мечтает стать главой местного муниципалитета,а его бышая девушка, стать журналисткой.
Жизнь в южном городке течет размеренно и без особых сюрпризов..А его жители живут и мечтают в горячем воздухе Иерухама ..Мечтать не вредно и не опасно для жизни?

Сэмпл: https://yadi.sk/i/huj8G_WqpvceE
Качество: SATRip
Формат: AVI
Видео: 704x400 (1.76:1), 25 fps, XviD MPEG-4 ~2020 kbps avg, 0.29 bit/pixel
Аудио: 48 kHz, MPEG Layer 3, 2 ch, ~128.00 kbps avg
Субтитры: хардсаб

MediaInfo

File: GRUZOVIK-02.avi
FileSize: 760.89 Mb ( 797 849 608 bytes )
Play length: 00:49:17.439 (73936 frames)
Subtitles: Not Present
Video: 704x400 (1.76:1), 25 fps, XviD MPEG-4 ~2020 kbps avg, 0.29 bit/pixel
Audio: 48 kHz, MPEG Layer 3, 2 ch, ~128.00 kbps avg
eneral
Complete name : L:\ГРУЗОВИК\GRUZOVIK\GRUZOVIK-01.avi
Format : AVI
Format/Info : Audio Video Interleave
File size : 805 MiB
Duration : 50mn 46s
Overall bit rate : 2 216 Kbps
Writing library : VirtualDub-MPEG2 build 24600/release
Video
ID : 0
Format : MPEG-4 Visual
Format profile : Advanced Simple@L5
Format settings, BVOP : 2
Format settings, QPel : No
Format settings, GMC : No warppoints
Format settings, Matrix : Default (H.263)
Muxing mode : Packed bitstream
Codec ID : XVID
Codec ID/Hint : XviD
Duration : 50mn 46s
Bit rate : 2 078 Kbps
Width : 704 pixels
Height : 400 pixels
Display aspect ratio : 16:9
Frame rate : 25.000 fps
Color space : YUV
Chroma subsampling : 4:2:0
Bit depth : 8 bits
Scan type : Progressive
Compression mode : Lossy
Bits/(Pixel*Frame) : 0.295
Stream size : 755 MiB (94%)
Writing library : XviD 73
Audio
ID : 1
Format : MPEG Audio
Format version : Version 1
Format profile : Layer 3
Mode : Joint stereo
Mode extension : MS Stereo
Codec ID : 55
Codec ID/Hint : MP3
Duration : 50mn 46s
Bit rate mode : Constant
Bit rate : 128 Kbps
Channel(s) : 2 channels
Sampling rate : 48.0 KHz
Compression mode : Lossy
Stream size : 46.5 MiB (6%)
Alignment : Split accross interleaves
Interleave, duration : 40 ms (1.00 video frame)
Interleave, preload duration : 500 ms

Скриншоты

ВНИМАНИЕ!
Релиз мой. Материал предоставлен для ознакомления. Копирование и распространение на другие ресурсы запрещено!

Релиз:
ПРОСЬБА:ПОЖАЛУЙСТА НЕ УХОДИТЕ С РАЗДАЧИ!! ПОМНИТЕ,СИДИРУЯ, ВЫ ПОМОГАЕТЕ РАЗДАВАТЬ БОЛЬШЕ СЕРИАЛОВ!
Вне форума [Профиль] [ЛС]
Показать сообщения:    
Ответить на тему

Текущее время: Сегодня 21:32

Часовой пояс: GMT + 3



Вы не можете начинать темы
Вы не можете отвечать на сообщения
Вы не можете редактировать свои сообщения
Вы не можете удалять свои сообщения
Вы не можете голосовать в опросах
Вы не можете прикреплять файлы к сообщениям
Вы не можете скачивать файлы