Сегодня идет свободное скачивание без начисления Download

Штамм / The Strain / Сезон: 2 / Серии: 1-13 из 13 (Гильермо дель Торо, Дэвид Семел, Кит Гордон, Питер Уэллер) [2015, ужасы, фантастика, драма, WEB-DLRip] MVO (AlexFilm)

Ответить на тему
 
Автор
Сообщение

Omen ®

Стаж: 5 лет 6 месяцев

Сообщений: 186946

Торрент-статистика

Пост 05-Мар-2016 12:00

[Цитировать]

Штамм / The Strain

Год выпуска: 2015
Страна: США
Жанр: ужасы, фантастика, драма
Продолжительность: 1 серия ~ 00:58:12, 2-13 серии ~ 00:43:42
Перевод: Профессиональный (многоголосый закадровый) - AlexFilm

Режиссёр: Гильермо дель Торо, Дэвид Семел, Кит Гордон, Питер Уэллер
В ролях: Кори Столл, Дэвид Брэдли, Джим Уотсон, Кевин Дюран, Миа Маэстро, Бен Хайленд, Джонатан Хайд, Рихард Заммель, Мигель Гомес, Натали Браун, Джек Кеси, Шон Эстин, Роберт Мэйллет, Хавьер Ботет, Фрэнсис Капра, Роджер Р. Кросс, Лесли Хоуп, Реджина Кинг, Мелани Меркоски, Дрю Нельсон...
Описание: В аэропорту Нью-Йорка экстренно приземляется самолет, полный мертвецов. Для выяснения обстоятельств их смерти на борт направляются ученые, возглавляемые лучшим городским эпидемиологом Эфраимом Гудвезером. В ходе исследований становится ясно, что пассажиры заражены вирусом вампиризма, который грозит перерасти в масштабную эпидемию, способную погубить все человечество.
Сэмпл
Качество: WEB-DLRip
Формат: AVI
Видео: 704x400 (1.76:1), 23.976 fps, XviD build 73 ~1999 kbps avg, 0.30 bit/pixel
Аудио: 48 kHz, AC3 Dolby Digital, 3/2 (L,C,R,l,r) + LFE ch, ~384 kbps
Субтитры: отсутствуют

Список серий

01. Бруклин, Нью-Йорк / BK, NY
02. Любой ценой / By Any Means
03. Непокорный рубеж / Fort Defiance
04. Серебряный ангел / The Silver Angel
05. Быстро и безболезненно / Quick and Painless
06. Личность / Identity
07. Рождение / The Born
08. Злоумышленники / Intruders
09. Битва за Ред Хук / The Battle for Red Hook
10. Убийца / The Assassin
11. Тупик / Dead End
12. Упавший свет / Fallen Light
13. Ночной поезд / The Night Train

MediaInfo

Общее
Полное имя : H:\Штамм\Season_02\s02e02_By.Any.Means.avi
Формат : AVI
Формат/Информация : Audio Video Interleave
Размер файла : 847 Мбайт
Продолжительность : 49 м.
Общий поток : 2393 Кбит/сек
Программа кодирования : VirtualDubMod 1.5.10.3 | www.virtualdub-fr.org || (build 2550/release)
Библиотека кодирования : VirtualDubMod build 2550/release
Видео
Идентификатор : 0
Формат : MPEG-4 Visual
Профиль формата : Advanced Simple@L5
Параметр BVOP формата : 2
Параметр QPel формата : Нет
Параметр GMC формата : Без точки перехода
Параметр матрицы формата : Выборочная
Идентификатор кодека : XVID
Идентификатор кодека/Подсказка : XviD
Продолжительность : 49 м.
Битрейт : 2000 Кбит/сек
Ширина : 704 пикселя
Высота : 400 пикселей
Соотношение сторон : 16:9
Частота кадров : 23,976 кадра/сек
Цветовое пространство : YUV
Субдискретизация насыщенности : 4:2:0
Битовая глубина : 8 бит
Тип развёртки : Прогрессивная
Метод сжатия : С потерями
Бит/(Пиксели*Кадры) : 0.296
Размер потока : 708 Мбайт (84%)
Библиотека кодирования : XviD 73
Аудио
Идентификатор : 1
Формат : AC-3
Формат/Информация : Audio Coding 3
Расширение режима : CM (complete main)
Параметр Endianness формата : Big
Идентификатор кодека : 2000
Продолжительность : 49 м.
Вид битрейта : Постоянный
Битрейт : 384 Кбит/сек
Каналы : 6 каналов
Расположение каналов : Front: L C R, Side: L R, LFE
Частота : 48,0 КГц
Битовая глубина : 16 бит
Метод сжатия : С потерями
Размер потока : 136 Мбайт (16%)
Выравнивание : Разделение по промежуткам
Продолжительность промежутка : 42 мс. (1,00 видеокадр)
Время предзагрузки промежутка : 500 мс.
--
Вне форума [Профиль] [ЛС]
Показать сообщения:    
Ответить на тему

Текущее время: Сегодня 06:26

Часовой пояс: GMT + 3



Вы не можете начинать темы
Вы не можете отвечать на сообщения
Вы не можете редактировать свои сообщения
Вы не можете удалять свои сообщения
Вы не можете голосовать в опросах
Вы не можете прикреплять файлы к сообщениям
Вы не можете скачивать файлы