Сегодня идет свободное скачивание без начисления Download

Ночная Галерея / Night Gallery / Сезон: 1-3 / Серии: 47 из 47 (Жанно Шварц, Джефф Кори, Джин Р. Кирни) [1969-1973, Фантастика, DVDRip]

Ответить на тему
 
Автор
Сообщение

Omen ®

Стаж: 5 лет 9 месяцев

Сообщений: 184433

Торрент-статистика

Пост 05-Мар-2016 09:00

[Цитировать]

Ночная Галерея / Night Gallery Год выпуска: 1969 - 1973
Страна: США
Жанр: Фантастика
Продолжительность: 00:25:00 / 00:50:00
Перевод: Отсутствует
Режиссёр: Жанно Шварц, Джефф Кори, Джин Р. Кирни и другие
В ролях: Род Серлинг,Ларри Уотсон,Джоанна Петтет и другие.
Описание: Ведущий Род Серлинг представляет различные истории ужасов.
Качество: DVDRip
Формат: MPEG-4
Видео: MPEG4 Video (H264) 718x480 (359:270) 120fps 1371kbps [V: h264 high L4.1, yuv420p, 718x480,1371 kb/s]
Аудио: AAC 48000Hz stereo 159kbps [A: English [eng] (aac lc, 48000 Hz, stereo, 159 kb/s)]
Субтитры: Отсутствуют

MediaInfo

General
Complete name : D:\Night Gallery (1969 - 1973) [Mystery Fantasy Horror Sci-Fi Thriller]\Season 1\Night Gallery 101 - The Cemetary.m4v
Format : MPEG-4
Format profile : Base Media / Version 2
Codec ID : mp42
File size : 300 MiB
Duration : 27mn 16s
Overall bit rate mode : Variable
Overall bit rate : 1 537 Kbps
Movie name : Night Gallery 101 - The Cemetary
Genre : Horror
Recorded date : 1969
Encoded date : UTC 2013-07-29 11:54:51
Tagged date : UTC 2013-07-29 13:26:58
Writing application : HandBrake 0.9.9 2013052900
Video
ID : 1
Format : AVC
Format/Info : Advanced Video Codec
Format profile : High@L4.1
Format settings, CABAC : Yes
Format settings, ReFrames : 8 frames
Codec ID : avc1
Codec ID/Info : Advanced Video Coding
Duration : 27mn 16s
Bit rate : 1 371 Kbps
Width : 718 pixels
Height : 480 pixels
Display aspect ratio : 4:3
Frame rate mode : Variable
Frame rate : 23.976 fps
Minimum frame rate : 13.333 fps
Maximum frame rate : 30.303 fps
Color space : YUV
Chroma subsampling : 4:2:0
Bit depth : 8 bits
Scan type : Progressive
Bits/(Pixel*Frame) : 0.166
Stream size : 268 MiB (89%)
Writing library : x264 core 130 r2273 b3065e6
Encoding settings : cabac=1 / ref=8 / deblock=1:0:0 / analyse=0x3:0x133 / me=umh / subme=9 / psy=1 / psy_rd=1.00:0.00 / mixed_ref=1 / me_range=16 / chroma_me=1 / trellis=2 / 8x8dct=1 / cqm=0 / deadzone=21,11 / fast_pskip=1 / chroma_qp_offset=-2 / threads=3 / lookahead_threads=1 / sliced_threads=0 / nr=0 / decimate=1 / interlaced=0 / bluray_compat=0 / constrained_intra=0 / bframes=3 / b_pyramid=2 / b_adapt=2 / b_bias=0 / direct=3 / weightb=1 / open_gop=0 / weightp=2 / keyint=240 / keyint_min=24 / scenecut=40 / intra_refresh=0 / rc_lookahead=60 / rc=crf / mbtree=1 / crf=20.0 / qcomp=0.60 / qpmin=0 / qpmax=69 / qpstep=4 / vbv_maxrate=62500 / vbv_bufsize=78125 / crf_max=0.0 / nal_hrd=none / ip_ratio=1.40 / aq=1:1.00
Encoded date : UTC 2013-07-29 11:54:51
Tagged date : UTC 2013-07-29 13:26:58
Color range : Limited
Color primaries : BT.601 NTSC
Transfer characteristics : BT.709
Matrix coefficients : BT.601
Audio
ID : 2
Format : AAC
Format/Info : Advanced Audio Codec
Format profile : LC
Codec ID : 40
Duration : 27mn 16s
Bit rate mode : Variable
Bit rate : 160 Kbps
Maximum bit rate : 184 Kbps
Channel(s) : 2 channels
Channel positions : Front: L R
Sampling rate : 48.0 KHz
Compression mode : Lossy
Stream size : 31.2 MiB (10%)
Title : Stereo
Language : English
Encoded date : UTC 2013-07-29 11:54:51
Tagged date : UTC 2013-07-29 13:26:57

Скриншоты


В раздаче присутствуют 3 ролика,я так понимаю это отрывки не вошедшие в эпизод.

1 Season

101 - The Cemetary
102 - The Dead Man
103 - Room with a View
104 - The House
105 - Make Me Laugh
106 - Pamela's Voice
107 - They're Tearing Down Tim Riley's Bar
108 - The Diary
109 - The Return of the Sorcerer
110 - Whisper

2 Season

201 - The Boy Who Predicted Earthquakes
202 - A Death in the Family
203 - Since Aunt Ada Came to Stay
204 - A Fear of Spiders
205 - The Phantom Farmhouse
206 - A Question of Fear
207 - Midnight Never Ends
208 - The Diary
209 - House with Ghost
210 - The Dark Boy
211 - Pickman's Model
212 - Cool Air
213 - The Messiah on Mott Street
214 - The Different Ones
215 - Green Fingers
216 - Lindemann's Catch
217 - The Miracle at Camafeo
218 - The Waiting Room
219 - Deliveries in the Rear
220 - I'll Never Leave You—Ever
221 - The Sins of the Fathers
222 - The Caterpillar

3 Season

301 - Return of the Sorcerer
302 - The Girl with the Hungry Eyes
303 - Rare Objects
304 - Spectre in Tap-Shoes
305 - You Can Come Up Now, Mrs Millikan
306 - The Other Way Out
307 - Fright Night
308 - Finnegan's Flight
309 - She'll be Company for You
310 - The Ring with the Red Velvet Ropes
311 - Something in the Woodwork
312 - Death on a Barge
313 - Whisper
314 - The Doll of Death
315 - Hatred Unto Death
Вне форума [Профиль] [ЛС]
Показать сообщения:    
Ответить на тему

Текущее время: Сегодня 19:31

Часовой пояс: GMT + 3



Вы не можете начинать темы
Вы не можете отвечать на сообщения
Вы не можете редактировать свои сообщения
Вы не можете удалять свои сообщения
Вы не можете голосовать в опросах
Вы не можете прикреплять файлы к сообщениям
Вы не можете скачивать файлы