Сегодня идет свободное скачивание без начисления Download

Папочкина армия / Dad\'s Army / Сезон: 5 / Серии: 1 из 13 (David Croft) [1972, ситком, DVDRip] Original + eng subs + rus subs (antoneus)

Ответить на тему
 
Автор
Сообщение

Omen ®

Стаж: 6 лет 1 месяц

Сообщений: 184308

Торрент-статистика

Пост 04-Мар-2016 00:03

[Цитировать]

Папочкина армия / Dad's Army
Год выпуска: 1972
Страна: Великобритания
Жанр: ситком
Продолжительность: 30:00
Перевод: Субтитры antoneus
Режиссёр: David Croft
В ролях: Arthur Lowe, John Le Mesurier, Clive Dunn, John Laurie
Описание: Продолжение приключений небольшого отряда Ополчения, находящегося под командованием энергичного, но не всегда сообразительного капитана Мэйнверинга, шагнувшего в ряды вооруженных сил прямо из-за стола управляющего банком. Действие происходит в маленьком английском приморском городке во время Второй мировой войны.
Сэмпл
Качество: DVDRip
Формат: AVI
Видео: XVID, 720x576, 5:4, 25 fps, 1300 Kbps
Аудио: MP3, 44.1 KHz, 2ch, 122 Kbps
Субтитры: rus

MediaInfo

General
Complete name : I:\Video\Dad's Army\Season 5\01 - Asleep in the Deep.avi
Format : AVI
Format/Info : Audio Video Interleave
File size : 302 MiB
Duration : 29mn 27s
Overall bit rate mode : Variable
Overall bit rate : 1 434 Kbps
Writing application : MEncoder r33883
Writing library : MPlayer
Video
ID : 0
Format : MPEG-4 Visual
Format profile : Simple@L3
Format settings, BVOP : No
Format settings, QPel : No
Format settings, GMC : No warppoints
Format settings, Matrix : Default (H.263)
Codec ID : XVID
Codec ID/Hint : XviD
Duration : 29mn 27s
Bit rate : 1 300 Kbps
Width : 720 pixels
Height : 576 pixels
Display aspect ratio : 5:4
Frame rate : 25.000 fps
Standard : PAL
Color space : YUV
Chroma subsampling : 4:2:0
Bit depth : 8 bits
Scan type : Progressive
Compression mode : Lossy
Bits/(Pixel*Frame) : 0.125
Stream size : 274 MiB (91%)
Writing library : XviD 63
Audio
ID : 1
Format : MPEG Audio
Format version : Version 1
Format profile : Layer 3
Mode : Joint stereo
Mode extension : MS Stereo
Codec ID : 55
Codec ID/Hint : MP3
Duration : 29mn 26s
Bit rate mode : Variable
Bit rate : 122 Kbps
Channel(s) : 2 channels
Sampling rate : 44.1 KHz
Compression mode : Lossy
Stream size : 25.7 MiB (9%)
Alignment : Aligned on interleaves
Interleave, duration : 26 ms (0.65 video frame)
Interleave, preload duration : 588 ms

Скриншоты

Вне форума [Профиль] [ЛС]
Показать сообщения:    
Ответить на тему

Текущее время: Сегодня 23:46

Часовой пояс: GMT + 3



Вы не можете начинать темы
Вы не можете отвечать на сообщения
Вы не можете редактировать свои сообщения
Вы не можете удалять свои сообщения
Вы не можете голосовать в опросах
Вы не можете прикреплять файлы к сообщениям
Вы не можете скачивать файлы