Сегодня идет свободное скачивание без начисления Download

Готэм / Gotham / Сезон: 2 / Серии: 1-12 из 22 (Дэнни Кэннон, Т.Дж. Скотт, Дермотт Даунс) [2015, Триллер, драма, криминал, WEB-DL 1080p] MVO (NewStudio) + MVO (LostFilm) + Original + Eng Subs

Ответить на тему
 
Автор
Сообщение

Omen ®

Стаж: 5 лет 10 месяцев

Сообщений: 184329

Торрент-статистика

Пост 04-Мар-2016 00:00

[Цитировать]

Готэм / Gotham- Год выпуска: 2015
Страна: США \ Fox
Жанр: Триллер, драма, криминал
Продолжительность: ~00:43:00-Перевод: Профессиональный (многоголосый закадровый) | NewStudio
Перевод: Профессиональный (многоголосый закадровый) | LostFilm-Режиссёр: Дэнни Кэннон, Т.Дж. Скотт, Дермотт Даунс-В ролях: Бен МакКензи, Донал Лог, Дэвид Мазоуз, Забрина Гевара, Шон Пертуи, Робин Тейлор, Эрин Ричардс, Камрен Бикондова, Кори Майкл Смит, Джада Пинкетт Смит-Описание: Новый сотрудник департамента полиции Готэма, детектив Джеймс Гордон и его напарник Харви Буллок назначаются начальником отдела полиции Готэма по расследованию убийств Сарой Эссен на самое громкое дело последних лет - убийство Томаса и Марты Уэйн. Во время расследования Гордон знакомится с сыном убитых - Брюсом Уэйном, который после смерти родителей находится под опекой своего дворецкого Альфреда. Одновременно с расследованием убийства Гордону приходится бороться с местным главарем банды Фиш Муни, а также с будущими злодеями Готэма: Селиной Кайл и Освальдом Кобблпотом. В итоге, Гордон фокусируется на дружбе с молодым Брюсом, чтобы в будущем сделать из маленького мальчика Тёмного рыцаря - защитника-- -Качество: WEB-DL 1080p
Контейнер: MKV
Видео: 1916×1076 at 23.976 fps, MPEG-4 AVC, ~4870 kbps avg, 0.099 bit/pixel
Аудио: 48 kHz, AC3, 3/2 (L,C,R,l,r) + LFE ch, ~384.00 kbps avg | NewStudio
Аудио: 48 kHz, AC3, 3/2 (L,C,R,l,r) + LFE ch, ~384.00 kbps avg | LostFilm
Аудио: 48 kHz, AC3, 3/2 (L,C,R,l,r) + LFE ch, ~384.00 kbps avg
Субтитры: English (full)-Цитата:
Цитата:
Дорожка LostFilm получена путем наложения выделенных голосов на центр оригинальной АС3. Огромное спасибо kmarats.
-

Список серий

01. Всё равно, всё едино / Damned If You Do
02. Тук-тук / Knock, Knock
03. Кто смеётся последним / The Last Laugh
04. Ударная группа / Strike Force
05. Шрамирование / Scarification
06. В огне / By Fire
07. Мамочкино чудовище / Mommy's Little Monster
08. Это случится сегодня / Tonight's the Night
09. Горькая пилюля / A Bitter Pill to Swallow
10. Сын Готэма / The Son of Gotham
11. Хуже преступления / Worse Than a Crime
12. Мистер Фриз / Mr. Freeze
-

MediaInfo

Уникальный идентификатор : 197234520319192856291663109288054280693 (0x9461FCA3D65887C7A15BF29DDF68D1F5)Полное имя : G:\Movies\Gotham (Season 2) 1080p WEB-DL\Gotham.s02e01.WEBDL.1080p.mkvФормат : MatroskaВерсия формата : Version 4 / Version 2Размер файла : 1,89 ГбайтПродолжительность : 44 м.Общий поток : 6144 Кбит/секНазвание фильма : Gotham 2x01 (2015)Дата кодирования : UTC 2015-09-26 04:29:21Программа кодирования : mkvmerge v8.4.0 ('A better way to fly') 32bitБиблиотека кодирования : libebml v1.3.1 + libmatroska v1.4.2DURATION : 00:44:01.152000000NUMBER_OF_FRAMES : 82536NUMBER_OF_BYTES : 126775296_STATISTICS_WRITING_APP : mkvmerge v8.4.0 ('A better way to fly') 32bit_STATISTICS_WRITING_DATE_UTC : 2015-09-26 04:29:21_STATISTICS_TAGS : BPS DURATION NUMBER_OF_FRAMES NUMBER_OF_BYTES
ВидеоИдентификатор : 1Формат : AVCФормат/Информация : Advanced Video CodecПрофиль формата : High@L4Параметр CABAC формата : ДаПараметр ReFrames формата : 4 кадраИдентификатор кодека : V_MPEG4/ISO/AVCПродолжительность : 44 м.Битрейт : 4870 Кбит/секШирина : 1916 пикселейВысота : 1076 пикселейСоотношение сторон : 16:9Режим частоты кадров : ПостоянныйЧастота кадров : 23,976 кадра/секЦветовое пространство : YUVСубдискретизация насыщенности : 4:2:0Битовая глубина : 8 битТип развёртки : ПрогрессивнаяБит/(Пиксели*Кадры) : 0.099Размер потока : 1,50 Гбайт (79%)Язык : EnglishDefault : ДаForced : Нетcolour_range : LimitedОсновные цвета : BT.709Характеристики трансфера : BT.709Коэффициенты матрицы : BT.709
Аудио #1Идентификатор : 2Формат : AC-3Формат/Информация : Audio Coding 3Расширение режима : CM (complete main)Параметр Endianness формата : BigИдентификатор кодека : A_AC3Продолжительность : 44 м.Вид битрейта : ПостоянныйБитрейт : 384 Кбит/секКаналы : 6 каналовРасположение каналов : Front: L C R, Side: L R, LFEЧастота : 48,0 КГцМетод сжатия : С потерямиРазмер потока : 121 Мбайт (6%)Заголовок : NewStudioЯзык : RussianDefault : ДаForced : Да
Аудио #2Идентификатор : 3Формат : AC-3Формат/Информация : Audio Coding 3Расширение режима : CM (complete main)Параметр Endianness формата : BigИдентификатор кодека : A_AC3Продолжительность : 44 м.Вид битрейта : ПостоянныйБитрейт : 384 Кбит/секКаналы : 6 каналовРасположение каналов : Front: L C R, Side: L R, LFEЧастота : 48,0 КГцМетод сжатия : С потерямиРазмер потока : 121 Мбайт (6%)Заголовок : LostFilmЯзык : RussianDefault : НетForced : Нет
Аудио #3Идентификатор : 4Формат : AC-3Формат/Информация : Audio Coding 3Расширение режима : CM (complete main)Параметр Endianness формата : BigИдентификатор кодека : A_AC3Продолжительность : 44 м.Вид битрейта : ПостоянныйБитрейт : 384 Кбит/секКаналы : 6 каналовРасположение каналов : Front: L C R, Side: L R, LFEЧастота : 48,0 КГцМетод сжатия : С потерямиРазмер потока : 121 Мбайт (6%)Язык : EnglishDefault : НетForced : Нет
ТекстИдентификатор : 5Формат : UTF-8Идентификатор кодека : S_TEXT/UTF8Идентификатор кодека/Информация : UTF-8 Plain TextЗаголовок : eng-subЯзык : EnglishDefault : НетForced : Нет
-

Скриншоты

-

Внимание! Раздача ведётся путём добавления новых серий!

Внимание! Раздача ведётся путём добавления новых серий; при каждом добавлении создётся новый торрент. Чтобы начать докачку новой серии, пользователям необходимо сделать следующее: (1) остановить скачивание, (2) удалить старый торрент у себя из клиента (старые серии удалять не надо), (3) скачать новый торрент и запустить его у себя в клиенте вместо старого, при этом указать клиенту путь в старую папку куда и должно происходить скачивание новых серий.
Ваш клиент при этом должен произвести хеширование (проверку) старой папки (если не производит сам - помогите ему сделать это), и будет докачивать только те серии которых у вас ещё нет. Старые серии при этом не удаляются, а продолжают раздаваться!
Eсли вы уже удалили старые серии, то предотвратить повторную закачку старых серий можно, отжав галочку в соответсвующих местах при запуске нового торрента.-
Вне форума [Профиль] [ЛС]
Показать сообщения:    
Ответить на тему

Текущее время: Сегодня 05:13

Часовой пояс: GMT + 3



Вы не можете начинать темы
Вы не можете отвечать на сообщения
Вы не можете редактировать свои сообщения
Вы не можете удалять свои сообщения
Вы не можете голосовать в опросах
Вы не можете прикреплять файлы к сообщениям
Вы не можете скачивать файлы