Сегодня идет свободное скачивание без начисления Download

Звёздный путь: Отступники / Star Trek: Renegades / Сезон: 1 / Серии: 1 из 2 (Тим Расс) [2015, фантастика, приключения, боевик, WEB-DL 1080p] DVO (ShinkaDan: Azazel (муж.) & Chigusa (жен.)) + Original

Ответить на тему
 
Автор
Сообщение

Omen ®

Стаж: 5 лет 9 месяцев

Сообщений: 184433

Торрент-статистика

Пост 03-Мар-2016 21:00

[Цитировать]

Звёздный путь: Отступники / Star Trek: Renegades
Год выпуска: 2015
Страна: США
Жанр: фантастика, приключения, боевик
Продолжительность: 1 ч. 28 м.
Перевод: Любительский (двухголосый закадровый) ShinkaDan: Azazel (муж.) & Chigusa (жен.)
Звукорежиссёр: Виктор Нуштаев
Отдельная благодарность Евгению Адвокату Гловаку за помощь с переводом
Режиссёр: Тим Расс
Студия: Atomic Studios, Skyway Productions, ST Renegades
В ролях: Эдриэнн Уилкинсон, Уолтер Кениг, Тим Расс, Шон Янг, Ману Интирэйми, Корин Немек, Гари Грэхэм, Брюс А. Янг, Чести Бальестерос, Эдвард Ферлонг
Описание: Прошло почти десять лет после возвращения Вояджера домой. Федерация в глубоком кризисе. Планеты с крупными залежами дилития исчезают. Пространство и время вокруг них было сложено столь эффективно, что они оказались абсолютно изолированы от остальной части космоса. Во всём этом прослеживается действие разума - коварного разума. Всё это, а также то, что командование звёздного флота категорически запрещает любые расследования - пугают адмирала Павла Чехова, главу разведки Звездного Флота. После исчезновения ещё одной планеты адмирал обращается к командеру Тувоку, бывшему офицеру безопасности Вояджера, а ныне его капитану. Тувок должен набрать новый экипаж, тех кто не связан с Федерацией и тем-более Звёздным флотом — даже если ими окажутся преступники. Новому экипажу предстоит выяснить, кто за всем этим стоит и как он это делает. Смогут ли они распутать этот клубок интриг и остаться в живых? Что ждёт бесстрашный экипаж в этом приключении? Всё это вы узнаете в этом замечательном сериале.
Доп. информация: Сбор средств на съёмки следующей серии идёт полным ходом на площадке Кикстартер.
Ссылка на предыдущие и альтернативные раздачи: Все раздачи сериала HD
Сэмпл: Яндекс диск
Качество: WEB-DL 1080p
Контейнер: MKV
Видео: H.264 / AVC Video / 9196 Kbps / 1920x960 / 23.976 fps / 2:1 / High@L4
Аудио: AC3 48000Hz 2ch 192kbps 16bit
Аудио 2: AC3 48000Hz 2ch 192kbps 16bit
Субтитры: отсутствуют

Список серий

1. Реквием

MediaInfo

Общее
Уникальный идентификатор : 218703142607863249758139109701737945955 (0xA488B170D64C7D48B6348671E79E9B63)
Полное имя : F:\downloads\[ShinkaDan] Star Trek Renegades [Azazel & Chigusa]\[ShinkaDan] Star Trek Renegades - Ep 01 [WEBrip 1920x1080p x264 AAC] [Azazel & Chigusa].mkv
Формат : Matroska
Версия формата : Version 4 / Version 2
Размер файла : 5,97 Гбайт
Продолжительность : 1 ч. 27 м.
Общий поток : 9775 Кбит/сек
Дата кодирования : UTC 2016-03-03 14:53:43
Программа кодирования : mkvmerge v8.2.0 ('World of Adventure') 64bit
Библиотека кодирования : libebml v1.3.1 + libmatroska v1.4.2
DURATION : 01:27:22.816000000
NUMBER_OF_FRAMES : 163838
NUMBER_OF_BYTES : 125827584
_STATISTICS_WRITING_APP : mkvmerge v8.2.0 ('World of Adventure') 64bit
_STATISTICS_WRITING_DATE_UTC : 2016-03-03 14:53:43
_STATISTICS_TAGS : BPS DURATION NUMBER_OF_FRAMES NUMBER_OF_BYTES
Видео
Идентификатор : 1
Формат : AVC
Формат/Информация : Advanced Video Codec
Профиль формата : High@L4
Параметр CABAC формата : Да
Параметр ReFrames формата : 2 кадра
Параметр GOP формата : M=2, N=30
Идентификатор кодека : V_MPEG4/ISO/AVC
Продолжительность : 1 ч. 27 м.
Битрейт : 9196 Кбит/сек
Ширина : 1920 пикселей
Высота : 960 пикселей
Соотношение сторон : 2,000
Режим частоты кадров : Постоянный
Частота кадров : 23,976 кадра/сек
Цветовое пространство : YUV
Субдискретизация насыщенности : 4:2:0
Битовая глубина : 8 бит
Тип развёртки : Прогрессивная
Бит/(Пиксели*Кадры) : 0.208
Размер потока : 5,61 Гбайт (94%)
Заголовок :
Язык : English
Default : Да
Forced : Да
Цветовой диапазон : Limited
Основные цвета : BT.709
Характеристики трансфера : BT.709
Коэффициенты матрицы : BT.709
Аудио #1
Идентификатор : 2
Формат : AC-3
Формат/Информация : Audio Coding 3
Расширение режима : CM (complete main)
Параметр Endianness формата : Big
Идентификатор кодека : A_AC3
Продолжительность : 1 ч. 27 м.
Вид битрейта : Постоянный
Битрейт : 192 Кбит/сек
Каналы : 2 канала
Расположение каналов : Front: L R
Частота : 48,0 КГц
Метод сжатия : С потерями
Размер потока : 120 Мбайт (2%)
Заголовок : Azazel & Chigusa
Язык : Russian
Default : Да
Forced : Да
Аудио #2
Идентификатор : 3
Формат : AC-3
Формат/Информация : Audio Coding 3
Расширение режима : CM (complete main)
Параметр Endianness формата : Big
Идентификатор кодека : A_AC3
Продолжительность : 1 ч. 27 м.
Вид битрейта : Постоянный
Битрейт : 192 Кбит/сек
Каналы : 2 канала
Расположение каналов : Front: L R
Частота : 48,0 КГц
Метод сжатия : С потерями
Размер потока : 120 Мбайт (2%)
Заголовок : Original
Язык : English
Default : Нет
Forced : Нет
Вне форума [Профиль] [ЛС]
Похожие темы
Форум Тема Автор Торрент Отв. Посл. сообщение
./templates/default/images/folder_dl.gif Новинки (BD|HDTV|DVD) Звёздные войны: Последние джедаи / Star Wars: The Last Jedi (Райан Джонсон) [2017, фантастика, фэнтези, боевик, приключения, UHD BDRemux 2160p] DUB | iTunes Theseus
1 | 0

0 | 497

3

2018-03-15 14:03
Theseus Последнее
Показать сообщения:    
Ответить на тему

Текущее время: Сегодня 03:14

Часовой пояс: GMT + 3



Вы не можете начинать темы
Вы не можете отвечать на сообщения
Вы не можете редактировать свои сообщения
Вы не можете удалять свои сообщения
Вы не можете голосовать в опросах
Вы не можете прикреплять файлы к сообщениям
Вы не можете скачивать файлы