Сегодня идет свободное скачивание без начисления Download

Сверхъестественное / Supernatural / Сезон: 11 / Серии: 14-15 из 23 (Филип Сгриккиа, Джеймс Л. Конуэй, Дженсен Эклс) [2015, ужасы, фэнтези, триллер, драма, детектив, WEB-DL 1080p] MVO (LostFilm)

Ответить на тему
 
Автор
Сообщение

Omen ®

Стаж: 5 лет 10 месяцев

Сообщений: 184329

Торрент-статистика

Пост 29-Фев-2016 21:33

[Цитировать]

Сверхъестественное / Supernatural
Год выпуска: 2015
Страна: США
Жанр: ужасы, фэнтези, триллер, драма, детектив
Продолжительность: ~00:42:00
Перевод: Профессиональный (многоголосый закадровый) LostFilm
Режиссёр: Филип Сгриккиа, Джеймс Л. Конуэй, Дженсен Эклс
В ролях: Джаред Падалеки, Дженсен Эклс, Миша Коллинз, Марк Шеппард, Марк Пеллегрино
Описание: Сериал рассказывает о приключениях братьев Сэма и Дина Винчестеров, которые путешествуют по Соединённым Штатам на чёрном автомобиле Chevrolet Impala 1967 года, расследуют паранормальные явления, многие из которых основаны на американских городских легендах и фольклоре, и сражаются с порождениями зла, такими как демоны и призраки.
После очередного фэйла братишек с Печатью изначального зла, миру вновь угрожает очередной глобальный пушной зверёк. Что же предпримут братья чтобы исправить свой же очередной косяк? Спасут ли они мир или Зло наконец восторжествует и мир будет уничтожен. И Чаку придётся опять всё переписывать?
Сэмпл: https://yadi.sk/i/gG2Pv_SfpkLfz
Качество: WEB-DL 1080p
Контейнер: MKV
Видео: 1920х1080 at 23.976 fps, MPEG-4 AVC, 5242 Кбит/сек, 16:9
Аудио: Russian: 48 kHz, AC3, ~384.00 kbps |Многоголосый закадровый, LostFilm|
Аудио 2: English: 48 kHz, AC3, ~384.00 kbps
Субтитры: отсутствуют

Список серий

14 серия - Сосуд (The Vessel)
15 серия - За пределами ринга (Beyond the Mat)

MediaInfo

Общее
Уникальный идентификатор : 208950057693581548329441203152458858044 (0x9D32513A87BF4218B66689D3531BBE3C)
Полное имя : D:\Раздачи\Supernatural.S11E14.1080p.rus.LostFilm.TV.mkv
Формат : Matroska
Версия формата : Version 4 / Version 2
Размер файла : 1,79 Гбайт
Продолжительность : 42 м.
Общий поток : 6010 Кбит/сек
Дата кодирования : UTC 2016-02-20 19:42:53
Программа кодирования : mkvmerge v8.8.0 ('Wind at my back') 64bit
Библиотека кодирования : libebml v1.3.3 + libmatroska v1.4.4
Видео
Идентификатор : 1
Формат : AVC
Формат/Информация : Advanced Video Codec
Профиль формата : High@L4
Параметр CABAC формата : Да
Параметр ReFrames формата : 2 кадра
Идентификатор кодека : V_MPEG4/ISO/AVC
Продолжительность : 42 м.
Битрейт : 5242 Кбит/сек
Ширина : 1920 пикселей
Высота : 1080 пикселей
Соотношение сторон : 16:9
Режим частоты кадров : Постоянный
Частота кадров : 23,976 (24000/1001) кадра/сек
Частота кадров в оригинале : 23,976 (23976/1000) кадра/сек
Цветовое пространство : YUV
Субдискретизация насыщенности : 4:2:0
Битовая глубина : 8 бит
Тип развёртки : Прогрессивная
Бит/(Пиксели*Кадры) : 0.105
Размер потока : 1,56 Гбайт (87%)
Библиотека кодирования : x264 core 112 r1834 a51816a
Настройки программы : cabac=1 / ref=1 / deblock=1:0:0 / analyse=0x3:0x133 / me=umh / subme=7 / psy=1 / psy_rd=1.00:0.00 / mixed_ref=0 / me_range=16 / chroma_me=1 / trellis=1 / 8x8dct=1 / cqm=0 / deadzone=21,11 / fast_pskip=1 / chroma_qp_offset=-2 / threads=12 / sliced_threads=0 / nr=0 / decimate=1 / interlaced=0 / constrained_intra=0 / bframes=5 / b_pyramid=0 / b_adapt=1 / b_bias=0 / direct=3 / weightb=1 / open_gop=0 / weightp=2 / keyint=250 / keyint_min=25 / scenecut=40 / intra_refresh=0 / rc_lookahead=40 / rc=2pass / mbtree=1 / bitrate=5242 / ratetol=1.0 / qcomp=0.60 / qpmin=0 / qpmax=51 / qpstep=4 / cplxblur=20.0 / qblur=0.5 / ip_ratio=1.40 / aq=1:1.00
Default : Да
Forced : Нет
Аудио #1
Идентификатор : 2
Формат : AC-3
Формат/Информация : Audio Coding 3
Расширение режима : CM (complete main)
Параметр Endianness формата : Big
Идентификатор кодека : A_AC3
Продолжительность : 42 м.
Вид битрейта : Постоянный
Битрейт : 384 Кбит/сек
Каналы : 2 канала
Расположение каналов : Front: L R
Частота : 48,0 КГц
Частота кадров : 31,250 кадров/сек (1536 spf)
Метод сжатия : С потерями
Размер потока : 117 Мбайт (6%)
Default : Да
Forced : Нет
Аудио #2
Идентификатор : 3
Формат : AC-3
Формат/Информация : Audio Coding 3
Расширение режима : CM (complete main)
Параметр Endianness формата : Big
Идентификатор кодека : A_AC3
Продолжительность : 42 м.
Вид битрейта : Постоянный
Битрейт : 384 Кбит/сек
Каналы : 2 канала
Расположение каналов : Front: L R
Частота : 48,0 КГц
Частота кадров : 31,250 кадров/сек (1536 spf)
Метод сжатия : С потерями
Размер потока : 117 Мбайт (6%)
Default : Нет
Forced : Нет

Скриншоты



Вне форума [Профиль] [ЛС]
Показать сообщения:    
Ответить на тему

Текущее время: Сегодня 23:25

Часовой пояс: GMT + 3



Вы не можете начинать темы
Вы не можете отвечать на сообщения
Вы не можете редактировать свои сообщения
Вы не можете удалять свои сообщения
Вы не можете голосовать в опросах
Вы не можете прикреплять файлы к сообщениям
Вы не можете скачивать файлы