Сегодня идет свободное скачивание без начисления Download

Охота на оленей / Stag / Мини-сериал / Серии: 1 из 3 (Джим Смит) [2016, триллер, HDTVRip] Original + Rus Subs

Ответить на тему
 
Автор
Сообщение

Omen ®

Стаж: 5 лет 7 месяцев

Сообщений: 185412

Торрент-статистика

Пост 29-Фев-2016 21:04

[Цитировать]

Охота на оленей / Stag
Год выпуска: 2016
Страна: Великобритания
Жанр: триллер
Продолжительность: 00:59:10
Перевод: Субтитры (М.Васильев)
Режиссёр: Джим Смит
В ролях: Джим Ховик,Стивен Мур, Джей Джей Филд, Руфус Джонс, Пилу Асбек
Описание: Ангус Джоннерс приглашает своих друзей провести выходные в глухом шотландском лесу, охотясь на оленей. Когда веселая компания приезжает в дикие края, все вдруг меняется, и из охотников они превращаются в жертв. Один за другим мужчины погибают от рук таинственного, невидимого убийцы. Кто заманил их сюда? Кто желает им зла и за что?
Доп. информация: Сериал канала BBC соединяет элементы триллера, фильма ужасов и экстравагантной комедии.
Во время сьемок были приняты беспрецедентные меры безопасности, чтобы не допустить утечку информации. До финального дня сьемок никто из актеров и сьемочной группы не видел сценария последней серии. На сьемочную площадку не допускалось даже руководство канала, а с генерального директора BBC, которому показали сценарий, взяли подписку о неразглашении.
Премьера: 27 февраля 2016 г.
Сэмпл
IMDB
КИНОПОИСК
Качество: HDTVRip
Формат: MP4
Видео: 1404 Kbps, 832x468 (16:9), 25 000 fps, AVC
Аудио: 93,5 Kbps, 48.0 KHz, 2 ch, AAC
Субтитры: внешние, srt

MediaInfo

General
Complete name : C:\Users\master\Documents\Downloads\Stag 1of3 (27 February 2016) [subs] mp4\Stag 1of3 (27 February 2016).mp4
Format : MPEG-4
Format profile : Base Media
Codec ID : isom
File size : 636 MiB
Duration : 59mn 10s
Overall bit rate mode : Constant
Overall bit rate : 1 503 Kbps
Writing application : Lavf56.40.101
Video
ID : 1
Format : AVC
Format/Info : Advanced Video Codec
Format profile : Main@L3.1
Format settings, CABAC : Yes
Format settings, ReFrames : 2 frames
Codec ID : avc1
Codec ID/Info : Advanced Video Coding
Duration : 59mn 10s
Bit rate mode : Constant
Bit rate : 1 404 Kbps
Width : 832 pixels
Height : 468 pixels
Display aspect ratio : 16:9
Frame rate mode : Constant
Frame rate : 25.000 fps
Color space : YUV
Chroma subsampling : 4:2:0
Bit depth : 8 bits
Scan type : Progressive
Bits/(Pixel*Frame) : 0.144
Stream size : 594 MiB (93%)
Audio
ID : 2
Format : AAC
Format/Info : Advanced Audio Codec
Format profile : LC
Codec ID : 40
Duration : 59mn 9s
Bit rate mode : Constant
Bit rate : 93.5 Kbps
Channel(s) : 2 channels
Channel positions : Front: L R
Sampling rate : 48.0 KHz
Compression mode : Lossy
Stream size : 39.6 MiB (6%)

Скриншоты





Вне форума [Профиль] [ЛС]
Похожие темы
Форум Тема Автор Торрент Отв. Посл. сообщение
./templates/default/images/folder_dl.gif Бизнес, Право, Экономика, Финансы Джордж Акерлоф, Роберт Шиллер | Охота на простака. Экономика манипуляций и обмана (2017) [MOBI, EPUB] }{@R0N
1 | 0

0 | 723

5

2017-11-28 21:09
}{@R0N Последнее
Показать сообщения:    
Ответить на тему

Текущее время: Сегодня 13:13

Часовой пояс: GMT + 3



Вы не можете начинать темы
Вы не можете отвечать на сообщения
Вы не можете редактировать свои сообщения
Вы не можете удалять свои сообщения
Вы не можете голосовать в опросах
Вы не можете прикреплять файлы к сообщениям
Вы не можете скачивать файлы