Сегодня идет свободное скачивание без начисления Download

Нижний этаж / Ground Floor / Сезон: 2 / Серии: 1-10 из 10 (Гэйл Манкусо) [2014, комедия, HDTVRip 720p] MVO (ТНТ) + Original

Ответить на тему
 
Автор
Сообщение

Omen ®

Стаж: 6 лет 1 месяц

Сообщений: 184308

Торрент-статистика

Пост 29-Фев-2016 03:03

[Цитировать]

Нижний этаж / Ground Floor
Год выпуска: 2014
Страна: США
Жанр: комедия
Продолжительность: ~22 мин.
Перевод: Профессиональный (многоголосый закадровый) /ТНТ/
Запись: #Antisnl# , Beer kolesik Drinkers
Сведение: Beer kolesik Drinkers

Режиссёр: Гэйл Манкусо
В ролях: Скайлар Эстин, Брига Хилэн, Рене Губе, Джеймс Эрл и др.
Описание:
Новый комедийный сериал от режиссера "Друзья", "Клиника", "Американская семейка", "Пригород" и др., который рассказывает о молодом и успешном банкире Броди, который работает в компании Whitestone Trust. Броди провел одну ночь с Дженнифер, а потом обнаружил, что она работает в службе обслуживания здания, где располагается его компания. С этого момента им приходится справляться с растущей взаимной симпатией, к большому раздражению сослуживцев.
Сэмпл: http://sendfile.su/1208878
Качество: HDTVRip 720p
Контейнер: MKV
Видео: H.264, 1280x720 (16:9), 23.976 fps, 3142 kbps, 0.142 bit/pixel
Аудио ТНТ: Russian, AC3, 48 kHz, 2 ch, 192 kbps
Аудио Eng: English, AC3, 48 kHz, 6 ch, 448 kbps
Субтитры: отсутствуют

Список серий

01 - Unforgiven
02 - Baked & Toasted
03 - Space Invaders
04 - The Break-Ups
05 - Mano-a-mansifled
06 - Love & Basketball
07 - Wicked Wedding
08 - The Mansfield Who Came to Dinner
09 - The Proposal : Part One
10 - The Proposal : Part Two

MediaInfo

General
Unique ID : 197219606970022294047666885428916365413 (0x945F1D5AE84268539A515991758DA865)
Complete name : D:\Раздачи\Ground.Floor.S02.720p.HDTV.Rus.Eng-BkD\Ground.Floor.S02E01.720p.HDTV.Rus.Eng-BkD.mkv
Format : Matroska
Format version : Version 4 / Version 2
File size : 584 MiB
Duration : 21mn 10s
Overall bit rate : 3 858 Kbps
Movie name : by Beer kolesik Drinkers for /*spam*/
Encoded date : UTC 2016-02-28 23:24:41
Writing application : mkvmerge v8.2.0 ('World of Adventure') 32bit
Writing library : libebml v1.3.1 + libmatroska v1.4.2
DURATION : 00:21:10.176000000
NUMBER_OF_FRAMES : 39693
NUMBER_OF_BYTES : 30484224
_STATISTICS_WRITING_APP : mkvmerge v8.2.0 ('World of Adventure') 32bit
_STATISTICS_WRITING_DATE_UT : 2016-02-28 23:24:41
_STATISTICS_TAGS : BPS DURATION NUMBER_OF_FRAMES NUMBER_OF_BYTES
Video
ID : 1
Format : AVC
Format/Info : Advanced Video Codec
Format profile : High@L4.1
Format settings, CABAC : Yes
Format settings, ReFrames : 8 frames
Codec ID : V_MPEG4/ISO/AVC
Duration : 21mn 10s
Bit rate : 3 142 Kbps
Width : 1 280 pixels
Height : 720 pixels
Display aspect ratio : 16:9
Frame rate mode : Constant
Frame rate : 23.976 fps
Color space : YUV
Chroma subsampling : 4:2:0
Bit depth : 8 bits
Scan type : Progressive
Bits/(Pixel*Frame) : 0.142
Stream size : 476 MiB (81%)
Writing library : x264 core 142 r2479 dd79a61
Encoding settings : cabac=1 / ref=8 / deblock=1:-2:-2 / analyse=0x3:0x113 / me=umh / subme=9 / psy=1 / psy_rd=1.00:0.00 / mixed_ref=1 / me_range=24 / chroma_me=1 / trellis=1 / 8x8dct=1 / cqm=0 / deadzone=21,11 / fast_pskip=0 / chroma_qp_offset=-2 / threads=18 / lookahead_threads=2 / sliced_threads=0 / nr=0 / decimate=1 / interlaced=0 / bluray_compat=0 / constrained_intra=0 / bframes=5 / b_pyramid=2 / b_adapt=2 / b_bias=0 / direct=3 / weightb=1 / open_gop=0 / weightp=2 / keyint=250 / keyint_min=23 / scenecut=40 / intra_refresh=0 / rc_lookahead=50 / rc=crf / mbtree=1 / crf=18.0 / qcomp=0.60 / qpmin=0 / qpmax=69 / qpstep=4 / ip_ratio=1.40 / aq=1:1.00
Language : English
Default : No
Forced : No
DURATION : 00:21:10.186000000
NUMBER_OF_FRAMES : 30454
NUMBER_OF_BYTES : 510662162
_STATISTICS_WRITING_APP : mkvmerge v8.2.0 ('World of Adventure') 32bit
_STATISTICS_WRITING_DATE_UT : 2016-02-28 23:24:41
_STATISTICS_TAGS : BPS DURATION NUMBER_OF_FRAMES NUMBER_OF_BYTES
Audio #1
ID : 2
Format : AC-3
Format/Info : Audio Coding 3
Mode extension : CM (complete main)
Format settings, Endianness : Big
Codec ID : A_AC3
Duration : 21mn 10s
Bit rate mode : Constant
Bit rate : 192 Kbps
Channel(s) : 2 channels
Channel positions : Front: L R
Sampling rate : 48.0 KHz
Compression mode : Lossy
Stream size : 29.1 MiB (5%)
Language : Russian
Default : Yes
Forced : No
Audio #2
ID : 3
Format : AC-3
Format/Info : Audio Coding 3
Mode extension : CM (complete main)
Format settings, Endianness : Big
Codec ID : A_AC3
Duration : 21mn 10s
Bit rate mode : Constant
Bit rate : 448 Kbps
Channel(s) : 6 channels
Channel positions : Front: L C R, Side: L R, LFE
Sampling rate : 48.0 KHz
Compression mode : Lossy
Delay relative to video : 28ms
Stream size : 67.8 MiB (12%)
Language : English
Default : No
Forced : No

Скриншоты

Вне форума [Профиль] [ЛС]
Показать сообщения:    
Ответить на тему

Текущее время: Сегодня 11:40

Часовой пояс: GMT + 3



Вы не можете начинать темы
Вы не можете отвечать на сообщения
Вы не можете редактировать свои сообщения
Вы не можете удалять свои сообщения
Вы не можете голосовать в опросах
Вы не можете прикреплять файлы к сообщениям
Вы не можете скачивать файлы