Сегодня идет свободное скачивание без начисления Download

Парень с работы / Kevin from work / Сезон: 1 / Серии: 1-10 из 10 (МакДжи) [2015, комедия, WEB-DL 1080p] MVO (Fox Life) + Original + Eng Sub

Ответить на тему
 
Автор
Сообщение

Omen ®

Стаж: 5 лет 6 месяцев

Сообщений: 186946

Торрент-статистика

Пост 29-Фев-2016 03:00

[Цитировать]

Парень с работы / Kevin from work
Год выпуска: 2015
Страна: США
Жанр: комедия
Продолжительность: ~22 мин.
Перевод: Профессиональный (многоголосый закадровый) /Fox Life/
Запись: #Antisnl# , Beer kolesik Drinkers
Сведение: Beer kolesik Drinkers

Режиссёр: МакДжи
В ролях: Ной Рид, Пейдж Спэра, Джордан Хинсон, Мэтт Мюррэй, Пунам Патель, Джейсон Рогель, Мэттью Флорида, Эми Седарис и др.
Описание:Герой сериала — Кевин, работающий в офисе с начальником-монстром и без памяти влюбленный в коллегу,которой он не может признаться в своих чувствах, решает уволиться и уехать в Европу, чтобы не травить себе душу. Но все выходит не так, как он планировал…
Сэмпл: http://sendfile.su/1208866
Качество: WEB-DL 1080p
Контейнер: MKV
Видео: H.264, 1920x1080 (16:9), 23.976 fps, 5057 kbps, 0.102 bit/pixel
Аудио Rus: Russian, AC3, 48 kHz, 2 ch, 192 kbps
Аудио Eng: English, AC3, 48 kHz, 6 ch, 384 kbps
Субтитры: softsub Английские

Список серий

01 Pilot
02 Gossip From Work
03 Who's Your Friend From Work
04 All About Work From Work
05 Roommates from Work
06 Birthday From Work
07 Secrets From Work
08 Aftershock From Work
09 Escape From Work
10 Team Kevin From Work

MediaInfo

General
Unique ID : 200189752419065766608746752307794099072 (0x969B24D4F2C9C64C84982705C2853B80)
Complete name : D:\Раздачи\Kevin.from.Work.S01.1080p.WEB-DL.H.264-BkD\Kevin.from.Work.S01E01.Pilot.1080p.WEB-DL.H.264-BkD.mkv
Format : Matroska
Format version : Version 4 / Version 2
File size : 921 MiB
Duration : 22mn 24s
Overall bit rate : 5 748 Kbps
Movie name : by Beer kolesik Drinkers for /*spam*/
Encoded date : UTC 2016-02-28 17:25:48
Writing application : mkvmerge v8.2.0 ('World of Adventure') 32bit
Writing library : libebml v1.3.1 + libmatroska v1.4.2
DURATION : 00:22:24.192000000
NUMBER_OF_FRAMES : 42006
NUMBER_OF_BYTES : 32260608
_STATISTICS_WRITING_APP : mkvmerge v8.2.0 ('World of Adventure') 32bit
_STATISTICS_WRITING_DATE_UT : 2016-02-28 17:25:48
_STATISTICS_TAGS : BPS DURATION NUMBER_OF_FRAMES NUMBER_OF_BYTES
Video
ID : 1
Format : AVC
Format/Info : Advanced Video Codec
Format profile : High@L4
Format settings, CABAC : Yes
Format settings, ReFrames : 4 frames
Codec ID : V_MPEG4/ISO/AVC
Duration : 22mn 24s
Bit rate : 5 057 Kbps
Width : 1 920 pixels
Height : 1 080 pixels
Display aspect ratio : 16:9
Frame rate mode : Constant
Frame rate : 23.976 fps
Color space : YUV
Chroma subsampling : 4:2:0
Bit depth : 8 bits
Scan type : Progressive
Bits/(Pixel*Frame) : 0.102
Stream size : 810 MiB (88%)
Language : English
Default : Yes
Forced : No
Color range : Limited
Color primaries : BT.709
Transfer characteristics : BT.709
Matrix coefficients : BT.709
Audio #1
ID : 2
Format : AC-3
Format/Info : Audio Coding 3
Mode extension : CM (complete main)
Format settings, Endianness : Big
Codec ID : A_AC3
Duration : 22mn 24s
Bit rate mode : Constant
Bit rate : 192 Kbps
Channel(s) : 2 channels
Channel positions : Front: L R
Sampling rate : 48.0 KHz
Compression mode : Lossy
Stream size : 30.8 MiB (3%)
Language : Russian
Default : Yes
Forced : No
Audio #2
ID : 3
Format : AC-3
Format/Info : Audio Coding 3
Mode extension : CM (complete main)
Format settings, Endianness : Big
Codec ID : A_AC3
Duration : 22mn 24s
Bit rate mode : Constant
Bit rate : 384 Kbps
Channel(s) : 6 channels
Channel positions : Front: L C R, Side: L R, LFE
Sampling rate : 48.0 KHz
Compression mode : Lossy
Stream size : 61.5 MiB (7%)
Language : English
Default : No
Forced : No
Text
ID : 4
Format : UTF-8
Codec ID : S_TEXT/UTF8
Codec ID/Info : UTF-8 Plain Text
Language : English
Default : Yes
Forced : No

Скриншоты

Вне форума [Профиль] [ЛС]
Показать сообщения:    
Ответить на тему

Текущее время: Сегодня 18:17

Часовой пояс: GMT + 3



Вы не можете начинать темы
Вы не можете отвечать на сообщения
Вы не можете редактировать свои сообщения
Вы не можете удалять свои сообщения
Вы не можете голосовать в опросах
Вы не можете прикреплять файлы к сообщениям
Вы не можете скачивать файлы