Сегодня идет свободное скачивание без начисления Download

Девочки / Girls / Сезон: 4 / Серии: 1-10 из 10 (Лина Данэм, Джоди Ли Лайпс, Ричард Шепард) [2015, Драма, комедия, WEB-DL 1080i] MVO (Amedia) + Original

Ответить на тему
 
Автор
Сообщение

Omen ®

Стаж: 5 лет 7 месяцев

Сообщений: 185412

Торрент-статистика

Пост 28-Фев-2016 00:03

[Цитировать]

Девочки / Girls
Год выпуска: 2015
Страна: США
Жанр: Драма, комедия
Продолжительность: 00:30:00
Перевод: Профессиональный (многоголосый закадровый) Amedia
Режиссёр: Лина Данэм, Джоди Ли Лайпс, Ричард Шепард
В ролях: Лена Данэм, Эллисон Вильямс, Джемима Кирк, Зося Мамет, Адам Драйвер
Описание: Комедия рассказывает о нескольких девушках двадцатилетнего возраста, которым приходится испытывать унижения и лишь изредка знавать вкус победы.
Сэмпл
Качество: WEB-DL 1080p
Контейнер: TS
Видео: 1920x1080i, 25,000fps, x264 ~5365 kbps ~0.103 bit/pixel
Аудио: AC3, 48 kHz, 6 ch, 384 Кбит/с - Rus
Аудио 2: MP2, 48 kHz, 2 ch, 192 Кбит/с - Eng
Субтитры: Нет

MediaInfo

Общее
Идентификатор : 9 (0x9)
Полное имя : D:\_temp\Girls.S04E01.ts
Формат : MPEG-TS
Размер файла : 1,09 Гбайт
Продолжительность : 25 м.
Режим общего битрейта : Переменный
Общий поток : 6256 Кбит/сек
Видео
Идентификатор : 303 (0x12F)
Идентификатор меню : 26003 (0x6593)
Формат : AVC
Формат/Информация : Advanced Video Codec
Профиль формата : High@L4.0
Параметр CABAC формата : Да
Параметр ReFrames формата : 4 кадра
Идентификатор кодека : 27
Продолжительность : 25 м.
Битрейт : 5365 Кбит/сек
Ширина : 1920 пикселей
Высота : 1080 пикселей
Соотношение сторон : 16:9
Частота кадров : 25,000 кадров/сек
Стандарт вещания : Component
Цветовое пространство : YUV
Субдискретизация насыщенности : 4:2:0
Битовая глубина : 8 бит
Тип развёртки : Чересстрочная
Порядок развёртки : Верхнее поле первое
Бит/(Пиксели*Кадры) : 0.103
Размер потока : 961 Мбайт (86%)
Основные цвета : BT.709
Характеристики трансфера : BT.709
Коэффициенты матрицы : BT.709
Аудио #1
Идентификатор : 403 (0x193)
Идентификатор меню : 26003 (0x6593)
Формат : AC-3
Формат/Информация : Audio Coding 3
Расширение режима : CM (complete main)
Параметр Endianness формата : Big
Идентификатор кодека : 6
Продолжительность : 25 м.
Вид битрейта : Постоянный
Битрейт : 384 Кбит/сек
Каналы : 6 каналов
Расположение каналов : Front: L C R, Side: L R, LFE
Частота : 48,0 КГц
Битовая глубина : 16 бит
Метод сжатия : С потерями
Задержка видео : -225 мс.
Размер потока : 68,8 Мбайт (6%)
Язык : Russian
Язык, дополнительно : Clean effects
Аудио #2
Идентификатор : 423 (0x1A7)
Идентификатор меню : 26003 (0x6593)
Формат : MPEG Audio
Версия формата : Version 1
Профиль формата : Layer 2
Идентификатор кодека : 4
Продолжительность : 25 м.
Вид битрейта : Постоянный
Битрейт : 192 Кбит/сек
Каналы : 2 канала
Частота : 48,0 КГц
Метод сжатия : С потерями
Задержка видео : -112 мс.
Размер потока : 34,4 Мбайт (3%)
Язык : English
Язык, дополнительно : Clean effects
Текст
Идентификатор : 503 (0x1F7)-888
Идентификатор меню : 26003 (0x6593)
Формат : Teletext Subtitle
Язык : Russian
Меню
Идентификатор : 203 (0xCB)
Идентификатор меню : 26003 (0x6593)
Продолжительность : 25 м.
Список : 303 (0x12F) (AVC) / 403 (0x193) (AC-3, Russian) / 423 (0x1A7) (MPEG Audio, English) / 503 (0x1F7) ()
Язык : / Russian / English

Скриншоты

Вне форума [Профиль] [ЛС]
Похожие темы
Форум Тема Автор Торрент Отв. Посл. сообщение
./templates/default/images/folder_sticky.gif Ролики, сайт рипы Реально пьяные Девочки (33 эпизода).Drunk Sex, All Sex,Group sex, CamRip] Fanatik
1 | 0

0 | 2524

109

2016-03-09 17:33
Fanatik Последнее
Показать сообщения:    
Ответить на тему

Текущее время: Сегодня 21:05

Часовой пояс: GMT + 3



Вы не можете начинать темы
Вы не можете отвечать на сообщения
Вы не можете редактировать свои сообщения
Вы не можете удалять свои сообщения
Вы не можете голосовать в опросах
Вы не можете прикреплять файлы к сообщениям
Вы не можете скачивать файлы