Сегодня идет свободное скачивание без начисления Download

Последний настоящий мужчина / Last Man Standing / Сезон: 2 / Серии: 1-18 из 18 (Джон Пасквин) [2012, комедия, WEB-DLRip] Dub (Paramount Comedy)

Ответить на тему
 
Автор
Сообщение

Omen ®

Стаж: 5 лет 9 месяцев

Сообщений: 184402

Торрент-статистика

Пост 25-Фев-2016 00:00

[Цитировать]

Последний настоящий мужчина / Last Man Standing

Год выпуска: 2012
Страна: США
Жанр: комедия
Продолжительность: 00:22:00
Перевод: Профессиональный (дублированный) - Paramount Comedy

Режиссёр: Джон Пасквин
В ролях: Тим Аллен, Нэнси Трэвис, Александра Кросни, Молли Эфраим, Кейтлин Девер, Кристоф Сандерс, Гектор Элизондо
Описание: Сегодняшний мир принадлежит женщинам, а этот мужчина задался целью вернуть остальным мужчинам достойное место в обществе.
Мужчины создавали цивилизации, изобрели локомотив и спортивный канал ESPN, но им приходится выяснить, что мир им больше не принадлежит. Быть мужественнее чем Майк Бакстер невозможно. Он маркетинговый директор легендарного спортивного магазина, обожает приключения во время командировок, и, конечно же, водит пикап.
Хотя на работе Майк круче всех, дома он под каблуком у женщин: у своей жены Ванессы, и у трех дочерей — 22-летней Кристин, 17-летней Мэнди и 14-летней Ив. Ванесса вернулась на работу после долгих лет воспитания детей, и, к недовольству коллег мужского пола, быстро получила повышение. Из-за того, что Ванесса много времени проводит на работе, Майку приходится проводить больше времени с дочерьми.
---Сэмпл---Качество: WEB-DLRip
Формат: AVI
Видео: 704x400 (1.76:1), 25 fps, XviD build 73 ~1999 kbps avg, 0.28 bit/pixel
Аудио: 48 kHz, AC3 Dolby Digital, 2/0 (L,R) ch, ~192 kbps
Субтитры: отсутствуют

MediaInfo

Общее
Полное имя : H:\Season_02\s02e01_Voting.avi
Формат : AVI
Формат/Информация : Audio Video Interleave
Размер файла : 334 Мбайт
Продолжительность : 21 м.
Общий поток : 2201 Кбит/сек
Программа кодирования : VirtualDubMod 1.5.10.3 | www.virtualdub-fr.org || (build 2550/release)
Библиотека кодирования : VirtualDubMod build 2550/release
Видео
Идентификатор : 0
Формат : MPEG-4 Visual
Профиль формата : Advanced Simple@L5
Параметр BVOP формата : 2
Параметр QPel формата : Нет
Параметр GMC формата : Без точки перехода
Параметр матрицы формата : Выборочная
Идентификатор кодека : XVID
Идентификатор кодека/Подсказка : XviD
Продолжительность : 21 м.
Битрейт : 2000 Кбит/сек
Ширина : 704 пикселя
Высота : 400 пикселей
Соотношение сторон : 16:9
Частота кадров : 23,976 кадра/сек
Цветовое пространство : YUV
Субдискретизация насыщенности : 4:2:0
Битовая глубина : 8 бит
Тип развёртки : Прогрессивная
Метод сжатия : С потерями
Бит/(Пиксели*Кадры) : 0.296
Размер потока : 304 Мбайт (91%)
Библиотека кодирования : XviD 73
Аудио
Идентификатор : 1
Формат : AC-3
Формат/Информация : Audio Coding 3
Расширение режима : CM (complete main)
Параметр Endianness формата : Big
Идентификатор кодека : 2000
Продолжительность : 21 м.
Вид битрейта : Постоянный
Битрейт : 192 Кбит/сек
Каналы : 2 канала
Расположение каналов : Front: L R
Частота : 48,0 КГц
Битовая глубина : 16 бит
Метод сжатия : С потерями
Размер потока : 29,2 Мбайт (9%)
Выравнивание : Разделение по промежуткам
Продолжительность промежутка : 42 мс. (1,00 видеокадр)
Время предзагрузки промежутка : 500 мс.

Скриншоты

Релиз группы:--
Вне форума [Профиль] [ЛС]
Похожие темы
Форум Тема Автор Торрент Отв. Посл. сообщение
./templates/default/images/folder_dl.gif Rock (Hard Rock) Led Zeppelin - Бутлеги, год 1977, часть 1, первый этап последнего тура по США - 1977, FLAC (tracks), lossless Omen
0 | 1

0 | 2375

1

2013-06-15 02:50
Omen Последнее
./templates/default/images/folder_dl.gif Обучающее видео Lynda.com | До и После. Техника Графического Дизайна (2013) PCRec Omen
1 | 0

0 | 1315

31

2014-12-03 17:31
Omen Последнее
./templates/default/images/folder_dl.gif Кулинария Лариса Абрикосова | Восстановление после вирусных инфекций (2015) [FB2] Omen
1 | 0

0 | 1034

9

2015-09-26 16:22
Omen Последнее
./templates/default/images/folder_dl.gif Новинки (BD|HDTV|DVD) Звёздные войны: Последние джедаи / Star Wars: The Last Jedi (Райан Джонсон) [2017, фантастика, фэнтези, боевик, приключения, BDRip 1080p] DUB | iTunes Theseus
1 | 0

0 | 425

8

2018-03-13 13:59
Theseus Последнее
./templates/default/images/folder_dl.gif Новинки (BD|HDTV|DVD) Звёздные войны: Последние джедаи / Star Wars: The Last Jedi (Райан Джонсон) [2017, фантастика, фэнтези, боевик, приключения, UHD BDRemux 2160p] DUB | iTunes Theseus
1 | 0

0 | 507

3

2018-03-15 14:03
Theseus Последнее
./templates/default/images/folder_dl.gif Фантастика, фэнтези, ужасы, мистика Павел Корнев | Последний город (2018) [MP3] }{@R0N
1 | 0

0 | 299

11

2018-04-14 00:03
}{@R0N Последнее
Показать сообщения:    
Ответить на тему

Текущее время: Сегодня 00:15

Часовой пояс: GMT + 3



Вы не можете начинать темы
Вы не можете отвечать на сообщения
Вы не можете редактировать свои сообщения
Вы не можете удалять свои сообщения
Вы не можете голосовать в опросах
Вы не можете прикреплять файлы к сообщениям
Вы не можете скачивать файлы