Сегодня идет свободное скачивание без начисления Download

Ночной администратор / The Night Manager / Сезон: 1 / Серии: 1 из 6 (Сюзанна Бир / Susanne Bier) [2016, Боевик, триллер, драма, WEB-DL 1080p] MVO (Студия Jaskier) + Original

Ответить на тему
 
Автор
Сообщение

Omen ®

Стаж: 5 лет 10 месяцев

Сообщений: 184329

Торрент-статистика

Пост 24-Фев-2016 18:38

[Цитировать]

Ночной администратор / The Night Manager
Год выпуска: 2016
Страна: Великобритания
Жанр: Боевик, триллер, драма
Продолжительность: ~00:60:00
Перевод: Профессиональный (многоголосый закадровый) Студия Jaskier
Режиссёр: Сюзанна Бир / Susanne Bier
В ролях: Том Хиддлстон, Хью Лори, Элизабет Дебики, Оливия Колман, Том Холландер, Кэтерин Келли, Майкл Нардон, Алистэр Петри, Джонатан Арис, Дэвид Хэрвуд
Описание: Бывший британский солдат Джонатан Пайн (Том Хиддлстон) нанят сотрудницей разведки Бёрр (Оливия Колман). Между двумя разведывательными организациями, базирующимися в Уайтхолле и Вашингтоне, существует альянс, который отправляет Пайна в синдикат по торговле оружием. Он должен втереться в доверие торговца оружием Ричарда Онслоу-Ропера (Хью Лори), его девушки Джед (Элизабет Дебики) и подручного Коркорана (Том Холландер).
Сэмпл: http://sendfile.su/1207081
Качество: WEB-DL 1080p
Контейнер: MKV
Видео: MPEG-4 AVC, ~5000 Кбит/с, 1912x1072
Аудио: Аудио 1: Dolby AC3 48000Hz 6ch 384 Kbps Русский
Аудио 2: Аудио 2: Dolby AC3 48000Hz 6ch 384 Kbps Оригинал (Английский)
Субтитры: Русские, английские

MediaInfo

Video
ID : 1
Format : AVC
Format/Info : Advanced Video Codec
Format profile : High@L4
Format settings, CABAC : Yes
Format settings, ReFrames : 4 frames
Codec ID : V_MPEG4/ISO/AVC
Duration : 57mn 32s
Bit rate : 4 942 Kbps
Width : 1 912 pixels
Height : 1 072 pixels
Display aspect ratio : 16:9
Frame rate mode : Constant
Frame rate : 25.000 fps
Color space : YUV
Chroma subsampling : 4:2:0
Bit depth : 8 bits
Scan type : Progressive
Bits/(Pixel*Frame) : 0.096
Stream size : 1.99 GiB (87%)
Language : English
Default : Yes
Forced : No
Color range : Limited
Color primaries : BT.709
Transfer characteristics : BT.709
Matrix coefficients : BT.709
Audio #1
ID : 2
Format : AC-3
Format/Info : Audio Coding 3
Mode extension : CM (complete main)
Format settings, Endianness : Big
Codec ID : A_AC3
Duration : 57mn 32s
Bit rate mode : Constant
Bit rate : 384 Kbps
Channel(s) : 6 channels
Channel positions : Front: L C R, Side: L R, LFE
Sampling rate : 48.0 KHz
Frame rate : 31.250 fps (1536 spf)
Compression mode : Lossy
Stream size : 158 MiB (7%)
Title : Профессиональный многоголосый (Jaskier)
Language : Russian
Default : Yes
Forced : No
Audio #2
ID : 3
Format : AC-3
Format/Info : Audio Coding 3
Mode extension : CM (complete main)
Format settings, Endianness : Big
Codec ID : A_AC3
Duration : 57mn 32s
Bit rate mode : Constant
Bit rate : 384 Kbps
Channel(s) : 6 channels
Channel positions : Front: L C R, Side: L R, LFE
Sampling rate : 48.0 KHz
Frame rate : 31.250 fps (1536 spf)
Compression mode : Lossy
Stream size : 158 MiB (7%)
Language : English
Default : No
Forced : No
Text #1
ID : 4
Format : UTF-8
Codec ID : S_TEXT/UTF8
Codec ID/Info : UTF-8 Plain Text
Duration : 56mn 8s
Bit rate : 86 bps
Count of elements : 650
Stream size : 35.4 KiB (0%)
Language : Russian
Default : No
Forced : No
Text #2
ID : 5
Format : UTF-8
Codec ID : S_TEXT/UTF8
Codec ID/Info : UTF-8 Plain Text
Duration : 56mn 59s
Bit rate : 53 bps
Count of elements : 685
Stream size : 22.4 KiB (0%)
Language : English
Default : No
Forced : No

Скриншоты



Вне форума [Профиль] [ЛС]
Показать сообщения:    
Ответить на тему

Текущее время: Сегодня 10:01

Часовой пояс: GMT + 3



Вы не можете начинать темы
Вы не можете отвечать на сообщения
Вы не можете редактировать свои сообщения
Вы не можете удалять свои сообщения
Вы не можете голосовать в опросах
Вы не можете прикреплять файлы к сообщениям
Вы не можете скачивать файлы