Сегодня идет свободное скачивание без начисления Download

Девочки / Girls / Сезон: 2 / Серии: 1-10 из 10 (Лина Данэм, Джоди Ли Лайпс, Ричард Шепард) [2013, Драма, комедия, BDRip 720p] MVO (Amedia) + Original

Ответить на тему
 
Автор
Сообщение

Omen ®

Стаж: 5 лет 9 месяцев

Сообщений: 184433

Торрент-статистика

Пост 24-Фев-2016 18:08

[Цитировать]

Девочки / Girls
Год выпуска: 2013
Страна: США
Жанр: Драма, комедия
Продолжительность: 00:30:00
Перевод: Профессиональный (многоголосый закадровый) Amedia
Режиссёр: Лина Данэм, Джоди Ли Лайпс, Ричард Шепард
В ролях: Лина Данэм, Эллисон Уильямс, Джемима Керк, Зося Мамет, Адам Драйвер, Кристофер Эбботт, Алекс Карповски, Джеймс ЛеГро, Кэтрин Хан, Питер Сколари, Бекки Энн Бэйкер, Кристофер Айджмен, Алекси Вассер, Чайк Джонсон, Роланд Сэндс, Марк МакГэнн и др.
Описание: Комедия рассказывает о нескольких девушках двадцатилетнего возраста, которым приходится испытывать унижения и лишь изредка знавать вкус победы
Сэмпл: https://yadi.sk/i/wAfK2p-gpRYZT
Качество: BDRip 720p
Контейнер: MKV
Видео: MPEG-4 AVC, ~ 5000 Кбит/с, 1280x720
Аудио: Русский (AC3, 2 ch, 192 Кбит/с)
Аудио 2: Aнглийский (AC3, 6 ch, 640 Кбит/с)
Субтитры: English

MediaInfo

Общее
Уникальный идентификатор : 215827749333770376625856207273963704904 (0xA25EE99B61497DA485321B48A2DA5248)
Полное имя : Z:\Films\Girls.S02.720p\Girls.S02E01.720p.mkv
Формат : Matroska
Версия формата : Version 4 / Version 2
Размер файла : 1,32 Гбайт
Продолжительность : 29 м.
Общий поток : 6388 Кбит/сек
Дата кодирования : UTC 2015-10-23 06:28:08
Программа кодирования : mkvmerge v7.9.0 ('Birds') 32bit
Библиотека кодирования : libebml v1.3.1 + libmatroska v1.4.2
Видео
Идентификатор : 1
Формат : AVC
Формат/Информация : Advanced Video Codec
Профиль формата : High@L4.1
Параметр CABAC формата : Да
Параметр ReFrames формата : 5 кадров
Идентификатор кодека : V_MPEG4/ISO/AVC
Продолжительность : 29 м.
Битрейт : 5536 Кбит/сек
Ширина : 1280 пикселей
Высота : 720 пикселей
Соотношение сторон : 16:9
Режим частоты кадров : Постоянный
Частота кадров : 23,976 кадра/сек
Цветовое пространство : YUV
Субдискретизация насыщенности : 4:2:0
Битовая глубина : 8 бит
Тип развёртки : Прогрессивная
Бит/(Пиксели*Кадры) : 0.251
Размер потока : 1,12 Гбайт (85%)
Заголовок : X264
Библиотека кодирования : x264 core 133 r2334 a3ac64b
Настройки программы : cabac=1 / ref=5 / deblock=1:0:0 / analyse=0x3:0x133 / me=umh / subme=7 / psy=1 / psy_rd=1.00:0.00 / mixed_ref=1 / me_range=16 / chroma_me=1 / trellis=1 / 8x8dct=1 / cqm=0 / deadzone=21,11 / fast_pskip=0 / chroma_qp_offset=-2 / threads=18 / lookahead_threads=3 / sliced_threads=0 / nr=0 / decimate=1 / interlaced=0 / bluray_compat=0 / constrained_intra=0 / bframes=3 / b_pyramid=2 / b_adapt=1 / b_bias=0 / direct=1 / weightb=1 / open_gop=0 / weightp=2 / keyint=250 / keyint_min=23 / scenecut=40 / intra_refresh=0 / rc_lookahead=40 / rc=2pass / mbtree=1 / bitrate=5536 / ratetol=1.0 / qcomp=0.60 / qpmin=0 / qpmax=69 / qpstep=4 / cplxblur=20.0 / qblur=0.5 / ip_ratio=1.40 / aq=1:1.00
Язык : English
Default : Да
Forced : Нет
Аудио #1
Идентификатор : 2
Формат : AC-3
Формат/Информация : Audio Coding 3
Расширение режима : CM (complete main)
Параметр Endianness формата : Big
Идентификатор кодека : A_AC3
Продолжительность : 29 м.
Вид битрейта : Постоянный
Битрейт : 192 Кбит/сек
Каналы : 2 канала
Расположение каналов : Front: L R
Частота : 48,0 КГц
Битовая глубина : 16 бит
Метод сжатия : С потерями
Размер потока : 40,5 Мбайт (3%)
Язык : Russian
Default : Да
Forced : Нет
Аудио #2
Идентификатор : 3
Формат : AC-3
Формат/Информация : Audio Coding 3
Расширение режима : CM (complete main)
Параметр Endianness формата : Big
Идентификатор кодека : A_AC3
Продолжительность : 29 м.
Вид битрейта : Постоянный
Битрейт : 640 Кбит/сек
Каналы : 6 каналов
Расположение каналов : Front: L C R, Side: L R, LFE
Частота : 48,0 КГц
Битовая глубина : 16 бит
Метод сжатия : С потерями
Размер потока : 135 Мбайт (10%)
Язык : English
Default : Нет
Forced : Нет
Меню
00:00:00.000 : en:00:00:00.000
00:02:41.370 : en:00:02:41.370
00:08:15.161 : en:00:08:15.161
00:15:18.292 : en:00:15:18.292
00:21:24.074 : en:00:21:24.074
00:27:59.678 : en:00:27:59.678

Скриншоты




Вне форума [Профиль] [ЛС]
Похожие темы
Форум Тема Автор Торрент Отв. Посл. сообщение
./templates/default/images/folder_sticky.gif Ролики, сайт рипы Реально пьяные Девочки (33 эпизода).Drunk Sex, All Sex,Group sex, CamRip] Fanatik
1 | 0

0 | 2699

113

2016-03-09 17:33
Fanatik Последнее
Показать сообщения:    
Ответить на тему

Текущее время: Сегодня 07:06

Часовой пояс: GMT + 3



Вы не можете начинать темы
Вы не можете отвечать на сообщения
Вы не можете редактировать свои сообщения
Вы не можете удалять свои сообщения
Вы не можете голосовать в опросах
Вы не можете прикреплять файлы к сообщениям
Вы не можете скачивать файлы