Сегодня идет свободное скачивание без начисления Download

Ночной администратор / The Night Manager / Сезон: 1 / Серии: 1 из 6 (Сюзанна Бир / Susanne Bier) [2016, Боевик, триллер, драма, WEB-DL 720p] MVO (NewStudio) + MVO (AMC) + Original

Ответить на тему
 
Автор
Сообщение

Omen ®

Стаж: 5 лет 7 месяцев

Сообщений: 185427

Торрент-статистика

Пост 23-Фев-2016 18:39

[Цитировать]

Ночной администратор / The Night Manager
Год выпуска: 2016
Страна: Великобритания, США
Жанр: Боевик, триллер, драма
Продолжительность: ~ 00:55:00-Перевод: Профессиональный (многоголосый закадровый) | NewStudio
Перевод: Профессиональный (многоголосый закадровый) | AMC
Субтитры: отсутствуют-Режиссёр: Сюзанна Бир / Susanne Bier-В ролях: Том Хиддлстон, Хью Лори, Элизабет Дебики, Оливия Колман, Том Холландер, Кэтерин Келли, Майкл Нардон, Алистэр Петри, Джонатан Арис, Дэвид Хэрвуд-Описание: Ночной администратор европейского отеля завербован агентами спецслужб для проникновения в международную сеть торговца оружием.-Ссылка на все раздачи сериала "The Night Manager"- -Качество: WEB-DL 720p
Контейнер: MKV
Видео: 960×718, 23.976 fps, MPEG-4 AVC, ~3899 kbps avg, 0.226 bit/pixel
Аудио: 48 kHz, AC3, 3/2 (L,C,R,l,r) + LFE ch, ~384.00 kbps avg | NewStudio
Аудио: 48 kHz, AC3, 2/0 (L,R) ch, ~192.00 kbps avg | AMC
Аудио: 48 kHz, AC3, 3/2 (L,C,R,l,r) + LFE ch, ~384.00 kbps avg-

MediaInfo

Уникальный идентификатор : 195242226540585942327199319097443066563 (0x92E248F90F0AE08FBCE7FA2C8A87A2C3)Полное имя : G:\Movies\The Night Manager (Season 1) 720p WEB-DL\The.Night.Manager.S01E01.WEBDL.720p.mkvФормат : MatroskaВерсия формата : Version 4 / Version 2Размер файла : 1,95 ГбайтПродолжительность : 57 м.Общий поток : 4861 Кбит/секДата кодирования : UTC 2016-02-23 15:08:43Программа кодирования : mkvmerge v8.9.0 ('Father Daughter') 32bitБиблиотека кодирования : libebml v1.3.3 + libmatroska v1.4.4
ВидеоИдентификатор : 1Формат : AVCФормат/Информация : Advanced Video CodecПрофиль формата : Main@L3.1Параметр CABAC формата : НетПараметр ReFrames формата : 2 кадраИдентификатор кодека : V_MPEG4/ISO/AVCПродолжительность : 57 м.Битрейт : 3899 Кбит/секШирина : 960 пикселейВысота : 718 пикселейСоотношение сторон : 16:9Режим частоты кадров : ПостоянныйЧастота кадров : 25,000 кадров/секЦветовое пространство : YUVСубдискретизация насыщенности : 4:2:0Битовая глубина : 8 битТип развёртки : ПрогрессивнаяБит/(Пиксели*Кадры) : 0.226Размер потока : 1,57 Гбайт (80%)Язык : EnglishDefault : ДаForced : Нетcolour_range : LimitedОсновные цвета : BT.709Характеристики трансфера : BT.709Коэффициенты матрицы : BT.709
Аудио #1Идентификатор : 2Формат : AC-3Формат/Информация : Audio Coding 3Расширение режима : CM (complete main)Параметр Endianness формата : BigИдентификатор кодека : A_AC3Продолжительность : 57 м.Вид битрейта : ПостоянныйБитрейт : 384 Кбит/секКаналы : 6 каналовРасположение каналов : Front: L C R, Side: L R, LFEЧастота : 48,0 КГцЧастота кадров : 31,250 кадров/сек (1536 spf)Метод сжатия : С потерямиРазмер потока : 158 Мбайт (8%)Заголовок : NewStudioЯзык : RussianDefault : ДаForced : Нет
Аудио #2Идентификатор : 3Формат : AC-3Формат/Информация : Audio Coding 3Расширение режима : CM (complete main)Параметр Endianness формата : BigИдентификатор кодека : A_AC3Продолжительность : 57 м.Вид битрейта : ПостоянныйБитрейт : 192 Кбит/секКаналы : 2 каналаРасположение каналов : Front: L RЧастота : 48,0 КГцЧастота кадров : 31,250 кадров/сек (1536 spf)Метод сжатия : С потерямиРазмер потока : 79,0 Мбайт (4%)Заголовок : AMCЯзык : RussianDefault : НетForced : Нет
Аудио #3Идентификатор : 4Формат : AC-3Формат/Информация : Audio Coding 3Расширение режима : CM (complete main)Параметр Endianness формата : BigИдентификатор кодека : A_AC3Продолжительность : 57 м.Вид битрейта : ПостоянныйБитрейт : 384 Кбит/секКаналы : 6 каналовРасположение каналов : Front: L C R, Side: L R, LFEЧастота : 48,0 КГцЧастота кадров : 31,250 кадров/сек (1536 spf)Метод сжатия : С потерямиРазмер потока : 158 Мбайт (8%)Язык : EnglishDefault : НетForced : Нет
-

Скриншоты

-

Внимание! Раздача ведётся путём добавления новых серий

Внимание! Раздача ведётся путём добавления новых серий; при каждом добавлении создаётся новый торрент. Чтобы начать докачку новой серии, пользователям необходимо сделать следующее:
(1) остановить скачивание,
(2) удалить старый торрент у себя из клиента (старые серии удалять не надо),
(3) скачать новый торрент и запустить его у себя в клиенте вместо старого, при этом указать клиенту путь в старую папку куда и должно происходить скачивание новых серий.
Ваш клиент при этом должен произвести хеширование (проверку) старой папки (если не производит сам - помогите ему сделать это), и будет докачивать только те серии которых у вас ещё нет. Старые серии при этом не удаляются, а продолжают раздаваться!
Eсли вы уже удалили старые серии, то предотвратить повторную закачку старых серий можно, отжав галочку в соответствующих местах при запуске нового торрента. По возможности, желательно не удалять старые серии как можно дольше чтобы релизёр не столько продолжал раздавать старые серии, а смог сконцентрироваться на новых.
-
Вне форума [Профиль] [ЛС]
Показать сообщения:    
Ответить на тему

Текущее время: Сегодня 14:39

Часовой пояс: GMT + 3



Вы не можете начинать темы
Вы не можете отвечать на сообщения
Вы не можете редактировать свои сообщения
Вы не можете удалять свои сообщения
Вы не можете голосовать в опросах
Вы не можете прикреплять файлы к сообщениям
Вы не можете скачивать файлы