Сегодня идет свободное скачивание без начисления Download

Волшебники / The Magicians / Сезон: 1 / Серии: 1-5 из 12 (Скотт Смит, Майк Кэхилл, Ян Элиасберг) [2015 г., Детектив, драма, ужасы, фэнтези, WEB-DL 720p] MVO (LostFilm) +MVO (Jaskier) + Original +Subs (Eng)

Ответить на тему
 
Автор
Сообщение

Omen ®

Стаж: 5 лет 10 месяцев

Сообщений: 184329

Торрент-статистика

Пост 23-Фев-2016 12:00

[Цитировать]

-Волшебники / The Magicians
- -Год выпуска: 2015-2016
Страна: США.
Жанр: Детектив, драма, ужасы, фэнтези.
Продолжительность: ~00:52:00-Перевод:
Профессиональный (многоголосый закадровый) LostFilm.
Профессиональный (многоголосый закадровый) Jaskier.
Режиссёр: Скотт Смит, Майк Кэхилл, Ян Элиасберг-В ролях: Джейсон Ральф, Арджун Гупта, Стелла Маив, Оливия Тейлор Дадли, Хейл Эйплмен, Саммер Бишил, Джейд Тейлор, Чарльз Межер, Эдвин Перез, Темби Лок.-Описание:
Молодые люди, слегка за двадцать, изучают в современном Нью-Йорке магию и обнаруживают, что волшебный мир, о котором они читали в детстве, не только реален, но еще и очень опасен.-Доп. Информация:
Релиз от by marchelush.
Работа со звуком: marchelush.
  • Дорожка №1 получена наложением выделенных голосов от «LostFilm» на центр оригинального AC3.--Качество: WEB-DL 720p
    Контейнер: MKV-Видео: 1280 x 720 at 23.976 fps, MPEG-4 AVC, ~4000 kbps avg
    Аудио#1: Russian: 48 kHz, AC3, 3/2 (L,C,R,l,r) + LFE ch, ~384.00 kbps avg |Многоголосый закадровый, LostFilm|
    Аудио#2:: English: 48 kHz, AC3, 3/2 (L,C,R,l,r) + LFE ch, ~384.00 kbps avg |Многоголосый закадровый, Jaskier|
    Аудио#2:: English: 48 kHz, AC3, 3/2 (L,C,R,l,r) + LFE ch, ~384.00 kbps avg
    Субтитры: English.

Список серий

  • 01. Unauthorized Magic.
  • 02. The Source of Magic.
  • 03. Consequences of Advanced Spellcasting.
  • 04. The World in the Walls
  • 05. Mendings, Major and Minor

MediaInfo

Код:
General
Unique ID                                : 217155838866641263554437982914978876833 (0xA35EB179F536E53A8BA09BA866C98DA1)
Complete name                            : Q:\!СЕРИАЛЫ!\The.Magicians.S01.720p.WEB-DL.Rus.Eng-HDCLUB\The.Magicians.S01E01.720p.WEB-DL.Rus.Eng-HDCLUB.mkv
Format                                   : Matroska
Format version                           : Version 4 / Version 2
File size                                : 1.75 GiB
Duration                                 : 52mn 1s
Overall bit rate                         : 4 803 Kbps
Movie name                               : The Magicians (2015) - Release for HDCLUB
Encoded date                             : UTC 2016-01-09 18:23:48
Writing application                      : mkvmerge v6.2.0 ('Promised Land') built on Apr 28 2013 12:22:01
Writing library                          : libebml v1.3.0 + libmatroska v1.4.0
Video
ID                                       : 1
Format                                   : AVC
Format/Info                              : Advanced Video Codec
Format profile                           : High@L3.1
Format settings, CABAC                   : No
Format settings, ReFrames                : 2 frames
Codec ID                                 : V_MPEG4/ISO/AVC
Duration                                 : 52mn 1s
Bit rate                                 : 3 939 Kbps
Width                                    : 1 280 pixels
Height                                   : 720 pixels
Display aspect ratio                     : 16:9
Frame rate mode                          : Constant
Frame rate                               : 23.976 fps
Color space                              : YUV
Chroma subsampling                       : 4:2:0
Bit depth                                : 8 bits
Scan type                                : Progressive
Bits/(Pixel*Frame)                       : 0.178
Stream size                              : 1.43 GiB (82%)
Language                                 : English
Default                                  : Yes
Forced                                   : No
Color range                              : Limited
Color primaries                          : BT.709
Transfer characteristics                 : BT.709
Matrix coefficients                      : BT.709
Audio #1
ID                                       : 2
Format                                   : AC-3
Format/Info                              : Audio Coding 3
Mode extension                           : CM (complete main)
Format settings, Endianness              : Big
Codec ID                                 : A_AC3
Duration                                 : 52mn 1s
Bit rate mode                            : Constant
Bit rate                                 : 384 Kbps
Channel(s)                               : 6 channels
Channel positions                        : Front: L C R, Side: L R, LFE
Sampling rate                            : 48.0 KHz
Compression mode                         : Lossy
Stream size                              : 143 MiB (8%)
Title                                    : LostFilm
Language                                 : Russian
Default                                  : Yes
Forced                                   : No
Audio #2
ID                                       : 3
Format                                   : AC-3
Format/Info                              : Audio Coding 3
Mode extension                           : CM (complete main)
Format settings, Endianness              : Big
Codec ID                                 : A_AC3
Duration                                 : 52mn 1s
Bit rate mode                            : Constant
Bit rate                                 : 384 Kbps
Channel(s)                               : 6 channels
Channel positions                        : Front: L C R, Side: L R, LFE
Sampling rate                            : 48.0 KHz
Compression mode                         : Lossy
Stream size                              : 143 MiB (8%)
Language                                 : English
Default                                  : No
Forced                                   : No
Text
ID                                       : 4
Format                                   : UTF-8
Codec ID                                 : S_TEXT/UTF8
Codec ID/Info                            : UTF-8 Plain Text
Language                                 : English
Default                                  : No
Forced                                   : No
[/spoiler]

Скриншоты

Внимание! Раздача ведётся путём добавления новых серий

Внимание! Раздача ведётся путём добавления новых серий; при каждом добавлении создаётся новый торрент. Чтобы начать докачку новой серии, пользователям необходимо сделать следующее:
(1) остановить скачивание,
(2) удалить старый торрент у себя из клиента (старые серии удалять не надо),
(3) скачать новый торрент и запустить его у себя в клиенте вместо старого, при этом указать клиенту путь в старую папку куда и должно происходить скачивание новых серий.
Ваш клиент при этом должен произвести хеширование (проверку) старой папки (если не производит сам - помогите ему сделать это), и будет докачивать только те серии которых у вас ещё нет. Старые серии при этом не удаляются, а продолжают раздаваться!
Eсли вы уже удалили старые серии, то предотвратить повторную закачку старых серий можно, отжав галочку в соответствующих местах при запуске нового торрента. По возможности, желательно не удалять старые серии как можно дольше чтобы релизёр не столько продолжал раздавать старые серии, а смог сконцентрироваться на новых.
Сэмпл | КиноПоиск | IMDB | Все раздачи сезона
Вне форума [Профиль] [ЛС]
Похожие темы
Форум Тема Автор Торрент Отв. Посл. сообщение
./templates/default/images/folder_dl.gif Фантастика, фэнтези, ужасы, мистика Чекрыгин Егор - Хроники Дебила, свиток 1, волшебный меч [TED (ЛИ), 2016, 56 kbps, MP3] }{@R0N
1 | 0

0 | 12442

15

2017-02-12 23:29
}{@R0N Последнее
Показать сообщения:    
Ответить на тему

Текущее время: Сегодня 03:25

Часовой пояс: GMT + 3



Вы не можете начинать темы
Вы не можете отвечать на сообщения
Вы не можете редактировать свои сообщения
Вы не можете удалять свои сообщения
Вы не можете голосовать в опросах
Вы не можете прикреплять файлы к сообщениям
Вы не можете скачивать файлы