Сегодня идет свободное скачивание без начисления Download

Модус / Modus / Сезон: 01 / Серии: 01-02 из 08 (Мани Масеррат Агах, Лиза Сиве) [2015, триллер,, HDTVRip 720p] MVO (ПРИЧУДИКИ) + Original

Ответить на тему
 
Автор
Сообщение

Omen ®

Стаж: 6 лет 1 месяц

Сообщений: 184308

Торрент-статистика

Пост 23-Фев-2016 00:00

[Цитировать]

Модус / Modus
Год выпуска: 2015
Страна: Швеция, Германия, Норвегия, Дания, Исландия ..
Жанр: триллер,
Продолжительность: 00:44:00
Перевод: Любительский (многоголосый закадровый) ПРИЧУДИКИ
Перевод на русский: Марья Логинова
Режиссёр: Мани Масеррат Агах, Лиза Сиве
В ролях: Мелинда Киннаман, Хенрик Норлен, Марек Оравек, Саймон Дж. Бергер, Кристер Хенрикссон, Сесилия Нилссон, Магнус Роосманн, Юхан Видерберг, Петер Йёбакк, Симон Норртон ..
Описание: В снежной Швеции скоро наступит Рождество, и психолог Ингер Юханне Вик вместе с ее аутичной дочкой оказываются втянуты в расследование череды жестоких убийств, и тогда она знакомится с детективом Ингваром Нюманном, которого направили в Уппсалу для расследования убийства епископа Элизабет Линдгрен. Но в Стокгольме продолжают находить тела, и Ингер Юханне замечает нечто схожее в казалось бы разных преступлениях — совсем скоро начинаются поиски убийцы.
Сэмпл: https://cloud.mail.ru/public/G6n5/9GaiF2hzH
Качество: HDTVRip 720p
Формат: MKV
Видео: 1280 x 720 (16/9), 25.000 fps, x264@L3.1, ~ 3 340 kbps avg, 0.145 bit/pixel
Аудио 1: 48 kHz, AC3 Dolby Digital, 2/0 (L,R) ch, ~192.00 kbps avg Rus
Аудио 2: 48 kHz, AC3 Dolby Digital, 2/0 (L,R) ch, ~192.00 kbps avg Swe
Субтитры: отсутствуют

MediaInfo

Complete name : Modus.S01E01.720p.HDTV.Rus.Swe-Pri4udiki.mkvFormat : MatroskaFormat version : Version 2File size : 1.14 GiBDuration : 44mn 7sOverall bit rate : 3 709 KbpsEncoded date : UTC 2015-10-28 21:20:19Writing application : mkvmerge v7.7.0 ('Six Voices') 32bit built on Feb 28 2015 23:23:00Writing library : libebml v1.3.1 + libmatroska v1.4.2DURATION : 00:44:07.392000000NUMBER_OF_FRAMES : 82731NUMBER_OF_BYTES : 63537408_STATISTICS_WRITING_APP : mkvmerge v7.7.0 ('Six Voices') 32bit built on Feb 28 2015 23:23:00_STATISTICS_WRITING_DATE_UTC : 2015-10-28 21:20:19_STATISTICS_TAGS : BPS DURATION NUMBER_OF_FRAMES NUMBER_OF_BYTES
VideoID : 1Format : AVCFormat/Info : Advanced Video CodecFormat profile : Main@L3.1Format settings, CABAC : YesFormat settings, ReFrames : 3 framesCodec ID : V_MPEG4/ISO/AVCDuration : 44mn 7sBit rate mode : ConstantBit rate : 3 340 KbpsWidth : 1 280 pixelsHeight : 720 pixelsDisplay aspect ratio : 16:9Frame rate : 25.000 fpsStandard : PALColor space : YUVChroma subsampling : 4:2:0Bit depth : 8 bitsScan type : ProgressiveBits/(Pixel*Frame) : 0.145Stream size : 1.00 GiB (88%)
Audio #1ID : 2Format : AC-3Format/Info : Audio Coding 3Mode extension : CM (complete main)Codec ID : A_AC3Duration : 44mn 7sBit rate mode : ConstantBit rate : 192 KbpsChannel(s) : 2 channelsChannel positions : Front: L RSampling rate : 48.0 KHzBit depth : 16 bitsCompression mode : LossyStream size : 60.6 MiB (5%)Title : Pri4udikiLanguage : Russian
Audio #2ID : 3Format : AC-3Format/Info : Audio Coding 3Mode extension : CM (complete main)Codec ID : A_AC3Duration : 44mn 7sBit rate mode : ConstantBit rate : 192 KbpsChannel(s) : 2 channelsChannel positions : Front: L RSampling rate : 48.0 KHzBit depth : 16 bitsCompression mode : LossyStream size : 60.6 MiB (5%)Title : OriginalLanguage : Swedish

Скриншоты


Внимание! Раздача ведётся путём добавления новых серий

Внимание! Раздача ведётся путём добавления новых серий; при каждом добавлении создаётся новый торрент. Чтобы начать докачку новой серии, пользователям необходимо сделать следующее: (1) остановить скачивание, (2) удалить старый торрент у себя из клиента (старые серии удалять не надо), (3) скачать новый торрент и запустить его у себя в клиенте вместо старого, при этом указать клиенту путь в старую папку куда и должно происходить скачивание новых серий.
Ваш клиент при этом должен произвести хеширование (проверку) старой папки (если не производит сам - помогите ему сделать это), и будет докачивать только те серии которых у вас ещё нет. Старые серии при этом не удаляются, а продолжают раздаваться!
Eсли вы уже удалили старые серии, то предотвратить повторную закачку старых серий можно, отжав галочку в соответствующих местах при запуске нового торрента.
Вне форума [Профиль] [ЛС]
Показать сообщения:    
Ответить на тему

Текущее время: Сегодня 04:46

Часовой пояс: GMT + 3



Вы не можете начинать темы
Вы не можете отвечать на сообщения
Вы не можете редактировать свои сообщения
Вы не можете удалять свои сообщения
Вы не можете голосовать в опросах
Вы не можете прикреплять файлы к сообщениям
Вы не можете скачивать файлы