Сегодня идет свободное скачивание без начисления Download

Викинги / Vikings / Сезон: 4 / Серии: 1 из 20 (Кен Джиротти / Ken Girotti [hr]) [2016, боевик, драма, военный, история, WEB-DL 1080p] MVO (AlexFilm, LostFilm, OMSKBIRD records, NewStudio, BaibaKo) + Original + Subs (Rus, Eng)

Ответить на тему
 
Автор
Сообщение

Omen ®

Стаж: 5 лет 9 месяцев

Сообщений: 184393

Торрент-статистика

Пост 22-Фев-2016 12:00

[Цитировать]

--Викинги / Vikings-- Год выпуска: 2016
Страна: Ирландия, Канада
Жанр: боевик, драма, военный, история
Продолжительность: ~ 00:44:00-Перевод:
Профессиональный (многоголосый закадровый) AlexFilm
Профессиональный (многоголосый закадровый) LostFilm
Профессиональный (многоголосый закадровый) OMSKBIRD records
Профессиональный (многоголосый закадровый) NewStudio
Профессиональный (многоголосый закадровый) BaibaKo-Режиссёр: Кен Джиротти / Ken Girotti-В ролях: Трэвис Фиммел, Клайв Стэнден, Кэтрин Уинник, Джессалин Гилсиг, Джордж Благден, Густаф Скарсгард, Торбьорн Харр, Владимир Кулих, Донал Лог, Айван Кэй, Мод Хирст, Эрик Хиггинс, Герард Маккарти, Юко Ахола, Эми Де Брюн, Сэм Смит, Билл Гибсон, Кевин Мюррэй-Описание: История повествует о приключениях величайшего героя своего времени – Рагнара Лодброка. В сериале показан Рагнар со своим племенем братьев-викингов и его семьёй в процессе становления королём всех племён викингов. Рагнар – бесстрашный воин, и религиозный викинг, который объединяет все племена и распространяет среди них поклонение скандинавским богам. Согласно легенде, он – прямой потомок Одина, бога войны и воителей.м Одина, бога войны и воинов.-В релизе отсутствует реклама- -Ссылка на предыдущие и альтернативные раздачи-Качество: WEB-DL 1080p
Контейнер: MKV
Видео: H.264, 1916x1076 (16:9), 23,976 fps, ~5089 kbps, 0.103 bit/pixel
Аудио # 1: AC3, 48 kHz, 6 ch, 384 kbps - AlexFilm
Аудио # 2: AC3, 48 kHz, 6 ch, 384 kbps - LostFilm
Аудио # 3: AC3, 48 kHz, 6 ch, 384 kbps - OMSKBIRD records
Аудио # 4: AC3, 48 kHz, 6 ch, 384 kbps - NewStudio
Аудио # 5: AC3, 48 kHz, 6 ch, 384 kbps - BaibaKo
Аудио # 6: AC3, 48 kHz, 6 ch, 384 kbps - оригинал
Субтитры: русские (OmskBird), английские

Релиз

Релиз: Grandfather61
Работа со звуком: Grandfather61
особая благодарность Михаилу Шорыгину (AlexFilm) и студии OmskBird за предоставленные голоса
Дорожка #1 получена наложением чистых голосов от «AlexFilm» на центр оригинального AC3
Дорожка #2 получена наложением выделенных голосов от «LostFilm» на центр оригинального AC3
Дорожка #3 получена наложением чистых голосов от «OMSKBIRD records» на центр оригинального AC3
Перевод субтитров: OMSKBIRD records
Cинхронизация субтитров: Grandfather61

Список серий

01. Удачная измена (A Good Treason)

MediaInfo

Общее
Уникальный идентификатор : 210507835504129392668394979875501779655 (0x9E5E559AC01DBD0588B79A83F3A62AC7)
Полное имя : G:\Films\Vikings.s04.1080p.Sborka\Vikings.S04E01.1080p.WEB-DL.Sborka.DD5.1.mkv
Формат : Matroska
Версия формата : Version 4 / Version 2
Размер файла : 2,28 Гбайт
Продолжительность : 44 м.
Общий поток : 7396 Кбит/сек
Дата кодирования : UTC 2016-02-22 07:22:28
Программа кодирования : mkvmerge v8.6.1 ('Flying') 64bit
Библиотека кодирования : libebml v1.3.3 + libmatroska v1.4.4
Видео
Идентификатор : 1
Формат : AVC
Формат/Информация : Advanced Video Codec
Профиль формата : High@L4
Параметр CABAC формата : Да
Параметр ReFrames формата : 4 кадра
Идентификатор кодека : V_MPEG4/ISO/AVC
Продолжительность : 44 м.
Битрейт : 5089 Кбит/сек
Ширина : 1916 пикселей
Высота : 1076 пикселей
Соотношение сторон : 16:9
Режим частоты кадров : Постоянный
Частота кадров : 23,976 (23976/1000) кадра/сек
Цветовое пространство : YUV
Субдискретизация насыщенности : 4:2:0
Битовая глубина : 8 бит
Тип развёртки : Прогрессивная
Бит/(Пиксели*Кадры) : 0.103
Размер потока : 1,57 Гбайт (69%)
Язык : English
Default : Да
Forced : Нет
colour_range : Limited
Основные цвета : BT.709
Характеристики трансфера : BT.709
Коэффициенты матрицы : BT.709
Аудио #1
Идентификатор : 2
Формат : AC-3
Формат/Информация : Audio Coding 3
Расширение режима : CM (complete main)
Параметр Endianness формата : Big
Идентификатор кодека : A_AC3
Продолжительность : 44 м.
Вид битрейта : Постоянный
Битрейт : 384 Кбит/сек
Каналы : 6 каналов
Расположение каналов : Front: L C R, Side: L R, LFE
Частота : 48,0 КГц
Частота кадров : 31,250 кадров/сек (1536 spf)
Метод сжатия : С потерями
Размер потока : 121 Мбайт (5%)
Заголовок : AlexFilm 5.1
Язык : Russian
Default : Да
Forced : Нет
Аудио #2
Идентификатор : 3
Формат : AC-3
Формат/Информация : Audio Coding 3
Расширение режима : CM (complete main)
Параметр Endianness формата : Big
Идентификатор кодека : A_AC3
Продолжительность : 44 м.
Вид битрейта : Постоянный
Битрейт : 384 Кбит/сек
Каналы : 6 каналов
Расположение каналов : Front: L C R, Side: L R, LFE
Частота : 48,0 КГц
Частота кадров : 31,250 кадров/сек (1536 spf)
Метод сжатия : С потерями
Размер потока : 121 Мбайт (5%)
Заголовок : LostFilm 5.1
Язык : Russian
Default : Нет
Forced : Нет
Аудио #3
Идентификатор : 4
Формат : AC-3
Формат/Информация : Audio Coding 3
Расширение режима : CM (complete main)
Параметр Endianness формата : Big
Идентификатор кодека : A_AC3
Продолжительность : 44 м.
Вид битрейта : Постоянный
Битрейт : 384 Кбит/сек
Каналы : 6 каналов
Расположение каналов : Front: L C R, Side: L R, LFE
Частота : 48,0 КГц
Частота кадров : 31,250 кадров/сек (1536 spf)
Метод сжатия : С потерями
Размер потока : 121 Мбайт (5%)
Заголовок : OmskBird 5.1
Язык : Russian
Default : Нет
Forced : Нет
Аудио #4
Идентификатор : 5
Формат : AC-3
Формат/Информация : Audio Coding 3
Расширение режима : CM (complete main)
Параметр Endianness формата : Big
Идентификатор кодека : A_AC3
Продолжительность : 44 м.
Вид битрейта : Постоянный
Битрейт : 384 Кбит/сек
Каналы : 6 каналов
Расположение каналов : Front: L C R, Side: L R, LFE
Частота : 48,0 КГц
Частота кадров : 31,250 кадров/сек (1536 spf)
Метод сжатия : С потерями
Размер потока : 121 Мбайт (5%)
Заголовок : NewStudio 5.1
Язык : Russian
Default : Нет
Forced : Нет
Аудио #5
Идентификатор : 6
Формат : AC-3
Формат/Информация : Audio Coding 3
Расширение режима : CM (complete main)
Параметр Endianness формата : Big
Идентификатор кодека : A_AC3
Продолжительность : 44 м.
Вид битрейта : Постоянный
Битрейт : 384 Кбит/сек
Каналы : 6 каналов
Расположение каналов : Front: L C R, Side: L R, LFE
Частота : 48,0 КГц
Частота кадров : 31,250 кадров/сек (1536 spf)
Метод сжатия : С потерями
Размер потока : 121 Мбайт (5%)
Заголовок : BaibaKo 5.1
Язык : Russian
Default : Нет
Forced : Нет
Аудио #6
Идентификатор : 7
Формат : AC-3
Формат/Информация : Audio Coding 3
Расширение режима : CM (complete main)
Параметр Endianness формата : Big
Идентификатор кодека : A_AC3
Продолжительность : 44 м.
Вид битрейта : Постоянный
Битрейт : 384 Кбит/сек
Каналы : 6 каналов
Расположение каналов : Front: L C R, Side: L R, LFE
Частота : 48,0 КГц
Частота кадров : 31,250 кадров/сек (1536 spf)
Метод сжатия : С потерями
Размер потока : 121 Мбайт (5%)
Заголовок : original 5.1
Язык : English
Default : Нет
Forced : Нет
Текст #1
Идентификатор : 8
Формат : UTF-8
Идентификатор кодека : S_TEXT/UTF8
Идентификатор кодека/Информация : UTF-8 Plain Text
Продолжительность : 42 м.
Битрейт : 50 бит/сек
Count of elements : 399
Размер потока : 15,8 Кбайт (0%)
Заголовок : rus (OmskBird)
Язык : Russian
Default : Нет
Forced : Нет
Текст #2
Идентификатор : 9
Формат : UTF-8
Идентификатор кодека : S_TEXT/UTF8
Идентификатор кодека/Информация : UTF-8 Plain Text
Продолжительность : 43 м.
Битрейт : 40 бит/сек
Count of elements : 535
Размер потока : 13,0 Кбайт (0%)
Заголовок : CC
Язык : English
Default : Нет
Forced : Нет

Скриншоты

Внимание! Раздача ведётся путём добавления новых серий.


Внимание! Раздача ведётся путём добавления новых серий; при каждом добавлении создётся новый торрент. Чтобы начать докачку новой серии, пользователям необходимо сделать следующее:
Остановить скачивание.
Удалить старый торрент у себя из клиента (старые серии удалять не надо).
Скачать новый торрент и запустить его у себя в клиенте вместо старого, при этом указать клиенту путь в старую папку куда и должно происходить скачивание новых серий.
Ваш клиент при этом должен произвести хеширование (проверку) старой папки (если не производит сам - помогите ему сделать это), и будет докачивать только те серии которых у вас ещё нет. Старые серии при этом не удаляются, а продолжают раздаваться!
Eсли вы уже удалили старые серии, то предотвратить повторную закачку старых серий можно, отжав галочку в соответсвующих местах при запуске нового торрента. По возможности, желательно не удалять старые серии как можно дольше чтобы релизёр не столько продолжал раздавать старые серии, а смог сконцентрироваться на новых.
Вне форума [Профиль] [ЛС]
Показать сообщения:    
Ответить на тему

Текущее время: Сегодня 19:04

Часовой пояс: GMT + 3



Вы не можете начинать темы
Вы не можете отвечать на сообщения
Вы не можете редактировать свои сообщения
Вы не можете удалять свои сообщения
Вы не можете голосовать в опросах
Вы не можете прикреплять файлы к сообщениям
Вы не можете скачивать файлы