Сегодня идет свободное скачивание без начисления Download

Могучие Рейнджеры Сила Времени / Power Rangers Time Force / Сезон: 9 / Серии: 01-40 из 40 (Койчи Сакамото, Айзек Флорентайн) [2001, Фантастика, приключения, DVDRemux] DUB (Ren-TV)+DVO+Original+Eng subs

Ответить на тему
 
Автор
Сообщение

Omen ®

Стаж: 5 лет 6 месяцев

Сообщений: 186946

Торрент-статистика

Пост 22-Фев-2016 06:33

[Цитировать]

Могучие Рейнджеры: Сила Времени / Пауэр Рэйнджерс или Могучие Рейнджеры: Патруль Времени / Power Rangers: Time Force-Completed Season 9- Оригинальное название: Power Rangers: Time Force
Русские названия: Пауэр Рэйнджерс или Могучие Рейнджеры: Патруль Времени, Могучие Рейнджеры: Сила Времени
Год выпуска: 2001
Страна: США
Жанр: Фантастика, приключения
Продолжительность: ~00:23:00
Перевод: Профессиональный (Полное Дублирование) Студия "Intra" по заказу Ren-TV
Перевод: Любительский (Двухголосный, закадровый)
Русские субтитры: нет
Английские субтитры: да
Режиссёр: Койчи Сакамото, Айзек Флорентайн
В ролях: Джэйсон Фаунт, Эрин Кайлл, Кэвин Клэйнберг, Дэбора Эстелл Филипс, Майкл Копон, Дэниел Саузуорт, Вернон Уэллс, Кейт Шэлдон, Эдуард Лоурэнс Альберт.
Описание: В 3000-м году, в далеком будущем, почти вся преступность ликвидирована усилиями спецподразделений полиции будущего. Последними и самыми опасными преступниками являются мутанты - существа, появившиеся в результате случайных ошибок или целенаправленных экспериментов с ДНК человека. Многие из мутантов, отвергаемые обществом, озлобляются и идут на преступный путь. Самые умные и жестокие пытаются использовать развившиеся технологии путешествия во времени, чтобы совершать преступления в прошлом.-Релиз от: -Над релизом работали:
vk07 - предоставила цифровые записи с Ren-TV.
anton - предоставил пиратский DVD с DVO.
ALEKS KV - сведение, итоговый муксинг.
Red Light - предоставил цифровую запись 6 серии с Ren-TV.
Shochkoman - предоставил DVD и сканы сезона.
SerGoLeOne - моральная поддержка.
SimbaTheLionKing - снабжение информацией и моральная поддержка.
Shaman-aka-King - снабжение информацией и моральная поддержка.-Ссылка на остальные раздачи-

В Русском озвучании принимали участие:

Дубляж студии "Intra" по заказу Ren-TV

Основной состав:
Геннадий Смирнов
Владимир Маслаков
Галина Чигинская
Елена Павловская
Замены в некоторых сериях:
Иван Паршин
-Сэмпл---Доп. информация: Релиз представляет собой полный видео ряд, без какого либо пересжатия с максимальным набором звуковых дорожек.

Время вырезанных моментов в дубляже Ren-TV

9x02
08:32-08:41
9x08
01:02-01:34
12:48-13:02
9x14
08:15-08:22
16:52-16:59
9x24
02:30-02:36
02:44-02:48
02:55-03:00
03:01-03:05
03:11-03:24
06:00-06:02
06:05-06:19
06:22-06:24
11:26-11:39
19:20-19:24
9x25
03:59-04:22
9x26
10:11-11:00
13:13-13:39
9x28
10:03-11:00
11:22-11:59
9x30
04:28-04:36
9x31
08:38-08:41
9x32
16:37-16:47
9x34
13:03-13:09

Альтернативные куски, особенности DVD издания

9x09
В Next Time обнаружена альтернативная сцена. Скачать вариант Ren-TV
9x10
06:15-06:30 - обнаружена альтернативная сцена. Скачать вариант Ren-TV
9x15
03:28-03:38 - обнаружена альтернативная сцена. Скачать вариант Ren-TV
9x16
На DVD отсутствовал Next Time. Скачать вариант Ren-TV
9x17
На DVD отсутствовал Next Time. Скачать вариант Ren-TV
---Качество: DVDRemux
Формат: MKV
Видео кодек: MPEG2
Аудио кодек: AC3
Видео: MPEG2, 720x480, 8bit, 29.970 fps, 5800 kbps
Аудио:
  • русская: Dolby AC3 48000Hz |DualMono| 192Kbps [Ren-TV] (Эпизоды 01-40)
  • русская: Dolby AC3 48000Hz |Stereo| 192Kbps [DVO] (Эпизоды 01,02,04-09)
  • английская: Dolby AC3 48000Hz |Stereo| 192Kbps [Оригинал] (Эпизоды 01-40)-

MI

General
Unique ID : 235217385326411372636992407322840815960 (0xB0F53878326E80AF81CD7294465C5958)
Complete name : X:\XXXXXXXXXXXXXXXXX\[M-KV2501] PRTF 9x04 [DVDRemux].mkv
Format : Matroska
Format version : Version 4 / Version 2
File size : 996 MiB
Duration : 21mn 27s
Overall bit rate mode : Variable
Overall bit rate : 6 491 Kbps
Encoded date : UTC 2016-02-22 01:00:04
Writing application : mkvmerge v8.2.0 ('World of Adventure') 64bit
Writing library : libebml v1.3.1 + libmatroska v1.4.2
Video
ID : 1
Format : MPEG Video
Format version : Version 2
Format profile : Main@Main
Format settings, BVOP : Yes
Format settings, Matrix : Custom
Format settings, GOP : M=3, N=15
Format settings, picture st : Frame
Codec ID : V_MPEG2
Codec ID/Info : MPEG 1 or 2 Video
Duration : 21mn 27s
Bit rate mode : Variable
Bit rate : 5 785 Kbps
Maximum bit rate : 9 000 Kbps
Width : 720 pixels
Height : 480 pixels
Display aspect ratio : 4:3
Frame rate mode : Constant
Frame rate : 30.033 fps
Original frame rate : 29.970 (30000/1001) fps
Standard : NTSC
Color space : YUV
Chroma subsampling : 4:2:0
Bit depth : 8 bits
Scan type : Interlaced
Scan order : Bottom Field First
Compression mode : Lossy
Bits/(Pixel*Frame) : 0.557
Time code of first frame : 00:00:00;00
Time code source : Group of pictures header
GOP, Open/Closed : Closed
Stream size : 888 MiB (89%)
Title : Original
Language : English
Default : Yes
Forced : No
Color primaries : BT.601 NTSC
Transfer characteristics : BT.601
Matrix coefficients : BT.601
Audio #1
ID : 2
Format : AC-3
Format/Info : Audio Coding 3
Mode extension : CM (complete main)
Format settings, Endianness : Big
Codec ID : A_AC3
Duration : 21mn 27s
Bit rate mode : Constant
Bit rate : 192 Kbps
Channel(s) : 2 channels
Channel positions : Front: L R
Sampling rate : 48.0 KHz
Frame rate : 31.250 fps (1536 spf)
Compression mode : Lossy
Stream size : 29.5 MiB (3%)
Title : Ren-TV
Language : Russian
Default : Yes
Forced : No
Audio #2
ID : 3
Format : AC-3
Format/Info : Audio Coding 3
Mode extension : CM (complete main)
Format settings, Endianness : Big
Codec ID : A_AC3
Duration : 21mn 27s
Bit rate mode : Constant
Bit rate : 192 Kbps
Channel(s) : 2 channels
Channel positions : Front: L R
Sampling rate : 48.0 KHz
Frame rate : 31.250 fps (1536 spf)
Compression mode : Lossy
Stream size : 29.5 MiB (3%)
Title : DVO
Language : Russian
Default : No
Forced : No
Audio #3
ID : 4
Format : AC-3
Format/Info : Audio Coding 3
Mode extension : CM (complete main)
Format settings, Endianness : Big
Codec ID : A_AC3
Duration : 21mn 27s
Bit rate mode : Constant
Bit rate : 192 Kbps
Channel(s) : 2 channels
Channel positions : Front: L R
Sampling rate : 48.0 KHz
Frame rate : 31.250 fps (1536 spf)
Compression mode : Lossy
Stream size : 29.5 MiB (3%)
Title : Original
Language : English
Default : No
Forced : No
Text
ID : 5
Format : UTF-8
Codec ID : S_TEXT/UTF8
Codec ID/Info : UTF-8 Plain Text
Title : Original
Language : English
Default : No
Forced : No

Список серий:

01. Полиция будущего - Часть 1
02. Полиция будущего - Часть 2
03. Есть за что бороться
04. История Рэнсика
05. Голубой луч
06. Разные пути
07. Короткое замыкание
08. Месть Джэн
09. Призрак из будущего
10. Будущее не предопределено
11. Удивительный Трип
12. Разные судьбы
13. Квантовый помощник
14. Кто хозяин Рэкса? - Часть 1
15. Кто хозяин Рэкса? - Часть 2
16. Телохранитель в синем
17. Тайна старой башни
18. Доверие и победа
19. Трип - защитник
20. Тайна квантового рейнджера
21. Последняя гонка
22. Влюблённый рейнджер
23. Великое разоблачение
24. Киномания - Часть 1
25. Киномания - Часть 2
26. Предатель
27. Месть Фрэкса
28. Спасти будущее
29. Бой с судьбой
30. Поражение судьбы
31. Рейнджеры под прикрытием
32. Берегись рыцаря
33. Успеть на помощь патрулю
34. По ту сторону зеркала
35. Мужчина её мечты
36. Предсказание Циркита
37. Затишье перед бурей
38. Конец времён - Часть 1
39. Конец времён - Часть 2
40. Конец времён - Часть 3

Правила, условия распространения (к прочтению обязательно)

Внимание, данная раздача содержит эксклюзивный контент от M-KV2501. Использовать контент без баннера группы: , указания первоначального источника, а так же оригинальных названий файлов - ЗАПРЕЩЕНО! Уважайте чужой труд!
Вне форума [Профиль] [ЛС]
Показать сообщения:    
Ответить на тему

Текущее время: Сегодня 02:07

Часовой пояс: GMT + 3



Вы не можете начинать темы
Вы не можете отвечать на сообщения
Вы не можете редактировать свои сообщения
Вы не можете удалять свои сообщения
Вы не можете голосовать в опросах
Вы не можете прикреплять файлы к сообщениям
Вы не можете скачивать файлы