Сегодня идет свободное скачивание без начисления Download

11/22/63 / 11.22.63 / Сезон 1 / Серии 1 (8) [2016 г., драма, комедия, HDTVRip] MVO (AlexFilm) + Subs (Rus, Eng)

Ответить на тему
 
Автор
Сообщение

Omen ®

Стаж: 5 лет 9 месяцев

Сообщений: 184433

Торрент-статистика

Пост 21-Фев-2016 12:00

[Цитировать]

-11/22/63 / 11.22.63
1 сезон, 1 серия
- Год выпуска: 2016
Страна: США
Жанр: драма, комедия
Продолжительность: ~80 мин
Озвучание: профессиональное многоголосое закадровое (AlexFilm)-Режиссеры: Джеймс Стронг, Фред Туа, Джеймс Кент
В ролях: Джеймс Франко, Крис Купер, Джош Дюамель, Люси Фрай, Сара Гадон, Черри Джонс, Т.Р. Найт, Джордж МакКэй, Даниэль Уэббер, Chris Gleason...-Описание: Учитель английского языка отправляется в прошлое, чтобы предотвратить убийство Кеннеди, но в результате сильно привязывается к той жизни, которую он сделал в ушедшей эпохе.-Релиз:
Перевод: Анастасия Кисиленко
Монтаж и сведение звука: Михаил Шорыгин
Роли озвучивали:
  • Татьяна Манетина
  • Таисия Тришина
  • Михаил Суслов
  • Владими Курдов
  • Роман Сопко
  • Рустам Шайхиев
  • Андрей Стакионис
  • Михаил Шорыгин-Сэмпл: http://sendfile.su/1206126- -Качество: HDTVRip
    Формат: AVI
    Видео: 704х352 (2:1), 23.976 fps, XviD ~1400 kbps avg, 0.20 bit/pixel
    Аудио Rus: 48 kHz, MPEG Layer 3, 2 ch, ~128.00 kbps avg
    Аудио Eng: 48 kHz, MPEG Layer 3, 2 ch, ~128.00 kbps avg
    Субтитры: русские, английские-

Скриншоты

MediaInfo

Формат : AVI
Формат/Информация : Audio Video Interleave
Размер файла : 968 Мбайт
Продолжительность : 1 ч. 20 м.
Общий поток : 1673 Кбит/сек
Название фильма : 11.22.63 1x01 @ AlexFilm
Программа кодирования : VirtualDubMod 1.5.10.2 (build 2540/release)
Библиотека кодирования : VirtualDubMod build 2540/release
Видео
Идентификатор : 0
Формат : MPEG-4 Visual
Профиль формата : Advanced Simple@L5
Параметр BVOP формата : Нет
Параметр QPel формата : Нет
Параметр GMC формата : Без точки перехода
Параметр матрицы формата : Default (H.263)
Идентификатор кодека : XVID
Идентификатор кодека/Подсказка : XviD
Продолжительность : 1 ч. 20 м.
Битрейт : 1403 Кбит/сек
Ширина : 704 пикселя
Высота : 352 пикселя
Соотношение сторон : 2,000
Частота кадров : 23,976 кадра/сек
Цветовое пространство : YUV
Субдискретизация насыщенности : 4:2:0
Битовая глубина : 8 бит
Тип развёртки : Прогрессивная
Метод сжатия : С потерями
Бит/(Пиксели*Кадры) : 0.236
Размер потока : 812 Мбайт (84%)
Библиотека кодирования : XviD 73
Аудио #1
Идентификатор : 1
Формат : MPEG Audio
Версия формата : Version 1
Профиль формата : Layer 3
Режим : Joint stereo
Расширение режима : MS Stereo
Идентификатор кодека : 55
Идентификатор кодека/Подсказка : MP3
Продолжительность : 1 ч. 20 м.
Вид битрейта : Постоянный
Битрейт : 128 Кбит/сек
Каналы : 2 канала
Частота : 48,0 КГц
Метод сжатия : С потерями
Размер потока : 74,1 Мбайт (8%)
Выравнивание : Соединение по промежуткам
Продолжительность промежутка : 42 мс. (1,00 видеокадр)
Время предзагрузки промежутка : 504 мс.
Заголовок : Russian (AlexFilm)
Библиотека кодирования : LAME3.99r
Настройки программы : -m j -V 4 -q 3 -lowpass 18 -b 128
Аудио #2
Идентификатор : 2
Формат : MPEG Audio
Версия формата : Version 1
Профиль формата : Layer 3
Режим : Joint stereo
Идентификатор кодека : 55
Идентификатор кодека/Подсказка : MP3
Продолжительность : 1 ч. 20 м.
Вид битрейта : Постоянный
Битрейт : 128 Кбит/сек
Каналы : 2 канала
Частота : 48,0 КГц
Метод сжатия : С потерями
Размер потока : 74,1 Мбайт (8%)
Выравнивание : Соединение по промежуткам
Продолжительность промежутка : 42 мс. (1,00 видеокадр)
Время предзагрузки промежутка : 504 мс.
Заголовок : English
Библиотека кодирования : LAME3.90.3

Внимание! Раздача ведётся путём добавления новых серий

Внимание! Раздача ведётся путём добавления новых серий; при каждом добавлении создаётся новый торрент. Чтобы начать докачку новой серии, пользователям необходимо сделать следующее:
(1) остановить скачивание,
(2) удалить старый торрент у себя из клиента (старые серии удалять не надо),
(3) скачать новый торрент и запустить его у себя в клиенте вместо старого, при этом указать клиенту путь в старую папку куда и должно происходить скачивание новых серий.
Ваш клиент при этом должен произвести хеширование (проверку) старой папки (если не производит сам - помогите ему сделать это), и будет докачивать только те серии которых у вас ещё нет. Старые серии при этом не удаляются, а продолжают раздаваться!
Eсли вы уже удалили старые серии, то предотвратить повторную закачку старых серий можно, отжав галочку в соответствующих местах при запуске нового торрента. По возможности, желательно не удалять старые серии как можно дольше чтобы релизёр не столько продолжал раздавать старые серии, а смог сконцентрироваться на новых.
--
Вне форума [Профиль] [ЛС]
Показать сообщения:    
Ответить на тему

Текущее время: Сегодня 12:06

Часовой пояс: GMT + 3



Вы не можете начинать темы
Вы не можете отвечать на сообщения
Вы не можете редактировать свои сообщения
Вы не можете удалять свои сообщения
Вы не можете голосовать в опросах
Вы не можете прикреплять файлы к сообщениям
Вы не можете скачивать файлы