Сегодня идет свободное скачивание без начисления Download

Форс-мажоры / Костюмы в законе / Suits / Сезон: 5 / Серии: 1-12 (16) (Кевин Брэй / Kevin Bray, Джон Скотт / John Scott, Майкл Смит / Michael Smith) [2015, драма, комедия, WEB-DL 720p] MVO (To4ka) + Original

Ответить на тему
 
Автор
Сообщение

Omen ®

Стаж: 5 лет 11 месяцев

Сообщений: 184329

Торрент-статистика

Пост 19-Фев-2016 21:08

[Цитировать]

Форс-мажоры / Костюмы в законе / Suits -Год выпуска: 2015
Страна: США | USA Network
Жанр: драма
Продолжительность: ~00:43:00
Перевод: Любительcкий (многоголосый закадровый) [To4ka]-Режиссеры: Кевин Брэй, Джон Скотт, Майкл Смит и др.
В ролях: Гэбриел Махт, Патрик Дж. Адамс, Рик Хоффман, Меган Маркл, Сара Рафферти, Джина Торрес, Ванесса Рэй, Том Липински, Макс Топплин, Ребекка Скул, Джулиан ДеЗотти, Бен Льюис и др.
Описание: Убегая после неудачной попытки сбыта наркотиков, юрист-самоучка Майк Росс, выдающий себя за выпускника Гарварда, попадает на собеседование к одному из лучших адвокатов по сделкам Нью-Йорка Харви Спектру. Устав от скучных соискателей, мечтающих «верой и правдой служить букве закона», Харви рискует и нанимает Майка: у парня врожденный талант и фотографическая память. Так рождается один из самых неоднозначных, но, в то же время, и самых блестящих тандемов законников на Манхэттене.- -Качество: WEB-DL 720p
Формат: MKV
Видео кодек: H.264
Аудио кодек: AC3
Видео: 1280x720 (16:9), 23.976 fps, ~4000 kbps
Аудио Rus: AC3, 48.0 kHz, 6 ch, 384 kbps [To4ka]
Аудио Eng: AC3, 48.0 kHz, 6 ch, 384 kbps [Original]
Субтитры: Отсутствуют-Релиз:
по заказу SeoPult.
Озвучание: Александр Нелюбин, Андрей Хомяков, Ирина Грачева и Марина Комчарукова.
Перевод: To4kaTranslate.
Редактор перевода: Оксана Графутко.-TVRage-

Список серий

5x01 24/Jun/2015 Denial
5x02 01/Jul/2015 Compensation
5x03 08/Jul/2015 No Refills
5x04 15/Jul/2015 No Puedo Hacerlo
5x05 22/Jul/2015 Toe to Toe
5x06 29/Jul/2015 Privilege
5x07 05/Aug/2015 Hitting Home
5x08 12/Aug/2015 Mea Culpa
5x09 19/Aug/2015 Uninvited Guests
5x10 26/Aug/2015 Faith
5x11 27/Jan/2016 Blowback
5x12 03/Feb/2016 Live to Fight...
5x13 10/Feb/2016 God's Green Earth
5x14 17/Feb/2016 Self Defense
5x15 24/Feb/2016 Tick Tock
5x16 02/Mar/2016 25th Hour

MI

Общее
Уникальный идентификатор : 218121904677530497068269239808971948530 (0xA418C032C258C9FBA33070A08A5AC1F2)
Полное имя : D:\Фильмы\Suits.s05.WEB-DL.720p.Rus.Eng.To4ka.TV\Suits.s05e01.WEB-DL.720p.Rus.Eng.To4ka.TV.mkv
Формат : Matroska
Версия формата : Version 4 / Version 2
Размер файла : 1,37 Гбайт
Продолжительность : 42 м.
Общий поток : 4663 Кбит/сек
Дата кодирования : UTC 2015-06-28 16:38:26
Программа кодирования : mkvmerge v7.8.0 ('River Man') 64bit built on Mar 27 2015 16:31:37
Библиотека кодирования : libebml v1.3.1 + libmatroska v1.4.2
DURATION : 00:42:07.008000000
NUMBER_OF_FRAMES : 78969
NUMBER_OF_BYTES : 121296384
_STATISTICS_WRITING_APP : mkvmerge v7.8.0 ('River Man') 64bit built on Mar 27 2015 16:31:37
_STATISTICS_WRITING_DATE_UTC : 2015-06-28 16:38:26
_STATISTICS_TAGS : BPS DURATION NUMBER_OF_FRAMES NUMBER_OF_BYTES
Видео
Идентификатор : 1
Формат : AVC
Формат/Информация : Advanced Video Codec
Профиль формата : High@L3.1
Параметр CABAC формата : Нет
Параметр ReFrames формата : 2 кадра
Идентификатор кодека : V_MPEG4/ISO/AVC
Продолжительность : 42 м.
Битрейт : 3802 Кбит/сек
Ширина : 1280 пикселей
Высота : 720 пикселей
Соотношение сторон : 16:9
Режим частоты кадров : Постоянный
Частота кадров : 23,976 кадра/сек
Цветовое пространство : YUV
Субдискретизация насыщенности : 4:2:0
Битовая глубина : 8 бит
Тип развёртки : Прогрессивная
Бит/(Пиксели*Кадры) : 0.172
Размер потока : 1,12 Гбайт (82%)
Язык : English
Default : Да
Forced : Нет
Основные цвета : BT.709
Характеристики трансфера : BT.709
Коэффициенты матрицы : BT.709
Аудио #1
Идентификатор : 2
Формат : AC-3
Формат/Информация : Audio Coding 3
Расширение режима : CM (complete main)
Параметр Endianness формата : Big
Идентификатор кодека : A_AC3
Продолжительность : 42 м.
Вид битрейта : Постоянный
Битрейт : 384 Кбит/сек
Каналы : 6 каналов
Расположение каналов : Front: L C R, Side: L R, LFE
Частота : 48,0 КГц
Битовая глубина : 16 бит
Метод сжатия : С потерями
Размер потока : 116 Мбайт (8%)
Заголовок : To4ka.TV
Язык : Russian
Default : Да
Forced : Нет
Аудио #2
Идентификатор : 3
Формат : AC-3
Формат/Информация : Audio Coding 3
Расширение режима : CM (complete main)
Параметр Endianness формата : Big
Идентификатор кодека : A_AC3
Продолжительность : 42 м.
Вид битрейта : Постоянный
Битрейт : 384 Кбит/сек
Каналы : 6 каналов
Расположение каналов : Front: L C R, Side: L R, LFE
Частота : 48,0 КГц
Битовая глубина : 16 бит
Метод сжатия : С потерями
Размер потока : 116 Мбайт (8%)
Язык : English
Default : Нет
Forced : Нет

Скриншоты

Внимание! Раздача ведётся путём добавления новых серий!

Внимание! Раздача ведётся путём добавления новых серий; при каждом добавлении создаётся новый торрент. Чтобы начать докачку новой серии, пользователям необходимо сделать следующее:
(1) остановить скачивание,
(2) удалить старый торрент у себя из клиента (старые серии удалять не надо),
(3) скачать новый торрент и запустить его у себя в клиенте вместо старого, при этом указать клиенту путь в старую папку куда и должно происходить скачивание новых серий.
Ваш клиент при этом должен произвести хеширование (проверку) старой папки (если не производит сам - помогите ему сделать это), и будет докачивать только те серии которых у вас ещё нет. Старые серии при этом не удаляются, а продолжают раздаваться!
Eсли вы уже удалили старые серии, то предотвратить повторную закачку старых серий можно, отжав галочку в соответствующих местах при запуске нового торрента. По возможности, желательно не удалять старые серии как можно дольше чтобы релизёр не столько продолжал раздавать старые серии, а смог сконцентрироваться на новых.
-19/02/2016. Добавлены 11, 12 серии.
Вне форума [Профиль] [ЛС]
Показать сообщения:    
Ответить на тему

Текущее время: Сегодня 21:02

Часовой пояс: GMT + 3



Вы не можете начинать темы
Вы не можете отвечать на сообщения
Вы не можете редактировать свои сообщения
Вы не можете удалять свои сообщения
Вы не можете голосовать в опросах
Вы не можете прикреплять файлы к сообщениям
Вы не можете скачивать файлы