Сегодня идет свободное скачивание без начисления Download

Пересекающиеся линии / Пересекая черту / Crossing Lines / Сезон: 3 / Серии: 1-12 из 12 (Дэниэл Персивал, Эрик Валетт, Энди Уилсон) [2015, боевик, драма, криминал, HDTVRip] MVO (Sony Turbo) + Original

Ответить на тему
 
Автор
Сообщение

Omen ®

Стаж: 6 лет 1 месяц

Сообщений: 184308

Торрент-статистика

Пост 19-Фев-2016 21:01

[Цитировать]

Пересекающиеся линии | Пересекая черту | Crossing Lines- Год выпуска: 2015
Страна: Франция, Германия, США, Бельгия
Жанр: боевик, драма, криминал
Продолжительность: 00:45:00
Перевод: Профессиональный (многоголосый закадровый) Sony Turbo--Режиссёр: Дэниэл Персивал, Эрик Валетт, Энди Уилсон
В ролях: Горан Вишнич, Дональд Сазерленд, Наоми Баттрик, Стюарт Мартин, Лара Росси, Том Влашиха, Элизабет Митчелл и др.-Описание: С формированием Европейского Союза для упрощения торговли и путешествий были открыты границы. Однако это имело и другое последствие: взрыв международной преступности. При таких условиях преступники могут сбегать в любую страну и спрятаться в любом городе. В мире, где самые опасные персоны могут пересекать столько границ, элитное спецподразделение, каждый член которого избирался исходя из его особенных навыков, должно провести под этим черту...---Релиз от
Рип: lipovan
Запись звука: Justin, Ser_GV
Сведение звука: Ser_GV
--Сэмпл: http://multi-up.com/1074385-Качество: HDTVRip
Формат: AVI
Видео: XVID build 65, 720x400 (16:9), 25.000 fps, ~2004 kbps avg, 0.278 bit/pixel
Аудио Rus: AC3 Dolby Digital, 48.0 KHz, 2 channels, ~192 kbps
Аудио Eng: AC3 Dolby Digital, 48.0 KHz, 2 channels, ~192 kbps
Субтитры: отсутствуют

MediaInfo

General
Complete name : E:\Пересекающиеся линии (Сезон 3) Sony Turbo\Crossing.Lines.S03E01-02.HDTVRip.CasStudio.avi
Format : AVI
Format/Info : Audio Video Interleave
File size : 1.25 GiB
Duration : 1h 14mn
Overall bit rate : 2 403 Kbps
Writing application : VirtualDubMod 1.5.10.3 (build 2550/release)
Writing library : VirtualDubMod build 2550/release
Video
ID : 0
Format : MPEG-4 Visual
Format profile : Advanced Simple@L5
Format settings, BVOP : 1
Format settings, QPel : No
Format settings, GMC : No warppoints
Format settings, Matrix : Default (MPEG)
Codec ID : XVID
Codec ID/Hint : XviD
Duration : 1h 14mn
Bit rate : 2 004 Kbps
Width : 720 pixels
Height : 400 pixels
Display aspect ratio : 16:9
Frame rate : 25.000 fps
Color space : YUV
Chroma subsampling : 4:2:0
Bit depth : 8 bits
Scan type : Progressive
Compression mode : Lossy
Bits/(Pixel*Frame) : 0.278
Stream size : 1.04 GiB (83%)
Writing library : XviD 65
Audio #1
ID : 1
Format : AC-3
Format/Info : Audio Coding 3
Mode extension : CM (complete main)
Format settings, Endianness : Big
Codec ID : 2000
Duration : 1h 14mn
Bit rate mode : Constant
Bit rate : 192 Kbps
Channel count : 2 channels
Channel positions : Front: L R
Sampling rate : 48.0 KHz
Bit depth : 16 bits
Compression mode : Lossy
Stream size : 102 MiB (8%)
Alignment : Split accross interleaves
Interleave, duration : 40 ms (1.00 video frame)
Interleave, preload duration : 500 ms
Audio #2
ID : 2
Format : AC-3
Format/Info : Audio Coding 3
Mode extension : CM (complete main)
Format settings, Endianness : Big
Codec ID : 2000
Duration : 1h 14mn
Bit rate mode : Constant
Bit rate : 192 Kbps
Channel count : 2 channels
Channel positions : Front: L R
Sampling rate : 48.0 KHz
Bit depth : 16 bits
Compression mode : Lossy
Stream size : 102 MiB (8%)
Alignment : Split accross interleaves
Interleave, duration : 40 ms (1.00 video frame)
Interleave, preload duration : 500 ms

Скриншоты

-

Ссылка на предыдущие и альтернативные раздачи

-

Внимание! Раздача ведётся путём добавления новых серий!

Внимание! Раздача ведётся путём добавления новых серий; при каждом добавлении создаётся новый торрент.
Чтобы начать докачку новой серии, пользователям необходимо сделать следующее:

1. Остановить скачивание.
2. Удалить старый торрент у себя из клиента (старые серии удалять не надо).
3. Скачать новый торрент и запустить его у себя в клиенте вместо старого, при этом указать клиенту путь в старую папку куда и должно происходить скачивание новых серий.

Ваш клиент при этом должен произвести хеширование (проверку) старой папки (если не производит сам - помогите ему сделать это), и будет докачивать только те серии которых у вас ещё нет. Старые серии при этом не удаляются, а продолжают раздаваться!
Eсли вы уже удалили старые серии, то предотвратить повторную закачку старых серий можно, отжав галочку в соответсвующих местах при запуске нового торрента.
-
Вне форума [Профиль] [ЛС]
Показать сообщения:    
Ответить на тему

Текущее время: Сегодня 23:44

Часовой пояс: GMT + 3



Вы не можете начинать темы
Вы не можете отвечать на сообщения
Вы не можете редактировать свои сообщения
Вы не можете удалять свои сообщения
Вы не можете голосовать в опросах
Вы не можете прикреплять файлы к сообщениям
Вы не можете скачивать файлы